Регистрация ·  Логин: Пароль: Запомнить   · Забыли пароль?




Ответить на тему
Статистика раздачи
Размер: 307.41 МБ | Зарегистрирован: 10 мар 2018, 13:20 | .torrent скачан: 0 раз(а)
Сидеров: [ 0  | 0 байт/сек ]   Личеров: [ 0  | 0 байт/сек ]   DHT: [ 0 / 0 ]
Автор Сообщение

Модератор
Аватара пользователя

Стаж: 6 лет
Сообщения: 7870
Молдова

Сообщение 10 мар 2018, 13:20 

[Цитировать]

Claudio Monteverdi - Madrigals Book 4 - Delitiæ Musicæ, Marco Longhini

Жанр: Classical, madrigal
Год издания диска: 2005
Издатель (лейбл): Naxos
Номер по каталогу: 8.555310
Дата записи: 2002
Аудиокодек: FLAC
Тип рипа: image+.cue
Битрейт аудио: lossless
Продолжительность: 73:46
Источник: собственный рип
Наличие сканов в содержимом раздачи: да
Треклист:
Claudio Monteverdi (1567-1643)
Il Quarto Libro de’ Madrigali, 1603
[1] Ah, dolente partita
[2] Cor mio, mentre vi miro
[3] Cor mio, non mori?
[4] Sfogava con le stelle
[5] Volgea l'anima mia soavemente
[6] Anima mia, perdona
[7] Che se tu se'il cor mio
[8] Luci serene e chiare
[9] La piaga c'ho nel core
[10] Voi pur da me partite, anima dura
[11] A un giro sol de'belli occhi lucenti
[12] Ohimè, se tanto amate
[13] Io mi son giovinetta
[14] Quell'augellin che canta
[15] Non più guerra, pietate
[16] Sì, ch'io vorrei morire
[17] Anima dolorosa
[18] Anima del cor mio
[19] Longe da te, cor mio
[20] Piagn'e sospira
Исполнители:
Delitiæ Musicæ
Marco Longhini
Код:
Exact Audio Copy V1.0 beta 3 from 29. August 2011
EAC extraction logfile from 20. April 2012, 14:46
Delitiae Musicae, Marco Longhini / Monteverdi - Madrigals Book 4
Used drive  : Optiarc DVD+-RW AD-5170S   Adapter: 1  ID: 2
Read mode               : Secure
Utilize accurate stream : Yes
Defeat audio cache      : Yes
Make use of C2 pointers : No
Read offset correction                      : 48
Overread into Lead-In and Lead-Out          : No
Fill up missing offset samples with silence : Yes
Delete leading and trailing silent blocks   : No
Null samples used in CRC calculations       : Yes
Used interface                              : Native Win32 interface for Win NT & 2000
Used output format              : User Defined Encoder
Selected bitrate                : 896 kBit/s
Quality                         : High
Add ID3 tag                     : Yes
Command line compressor         : C:\Program Files\Exact Audio Copy\Flac\flac.exe
Additional command line options : -V -8 %source%
TOC of the extracted CD
     Track |   Start  |  Length  | Start sector | End sector
    ---------------------------------------------------------
        1  |  0:00.00 |  4:04.33 |         0    |    18332
        2  |  4:04.33 |  2:27.48 |     18333    |    29405
        3  |  6:32.06 |  3:54.11 |     29406    |    46966
        4  | 10:26.17 |  4:36.49 |     46967    |    67715
        5  | 15:02.66 |  4:16.61 |     67716    |    86976
        6  | 19:19.52 |  3:20.18 |     86977    |   101994
        7  | 22:39.70 |  4:17.31 |    101995    |   121300
        8  | 26:57.26 |  3:53.52 |    121301    |   138827
        9  | 30:51.03 |  2:56.66 |    138828    |   152093
       10  | 33:47.69 |  4:49.05 |    152094    |   173773
       11  | 38:36.74 |  2:46.31 |    173774    |   186254
       12  | 41:23.30 |  3:41.74 |    186255    |   202903
       13  | 45:05.29 |  2:34.15 |    202904    |   214468
       14  | 47:39.44 |  2:28.54 |    214469    |   225622
       15  | 50:08.23 |  3:34.44 |    225623    |   241716
       16  | 53:42.67 |  4:02.62 |    241717    |   259928
       17  | 57:45.54 |  3:49.20 |    259929    |   277123
       18  | 61:34.74 |  3:16.36 |    277124    |   291859
       19  | 64:51.35 |  3:38.20 |    291860    |   308229
       20  | 68:29.55 |  5:14.20 |    308230    |   331799
Range status and errors
Selected range
     Filename D:\temp\pics\Monteverdi - Madrigals Book 4\Monteverdi - Madrigals Book 4.wav
     Peak level 100.0 %
     Extraction speed 4.3 X
     Range quality 100.0 %
     Test CRC FD5A2BA5
     Copy CRC FD5A2BA5
     Copy OK
No errors occurred
End of status report
==== Log checksum 03AC26106BE03533E2CEFFF6010686D5FC908664EC5B31C56969D7B3815AFEC0 ====


Скачать торрент 307.41 МБ


Download
Для скачивания .torrent файлов необходима регистрация
Сайт не распространяет и не хранит электронные версии произведений, а лишь предоставляет доступ к создаваемому пользователями каталогу ссылок на торрент-файлы, которые содержат только списки хеш-сумм

Страница 1 из 1

Ответить на тему

   Похожие торренты   Торрент