Регистрация ·  Логин: Пароль: Запомнить   · Забыли пароль?




Ответить на тему
Статистика раздачи
Размер: 288.91 МБ | Зарегистрирован: 10 мар 2018, 13:20 | .torrent скачан: 0 раз(а)
Сидеров: [ 0  | 0 байт/сек ]   Личеров: [ 0  | 0 байт/сек ]   DHT: [ 0 / 0 ]
Автор Сообщение

Модератор
Аватара пользователя

Стаж: 6 лет
Сообщения: 7870
Молдова

Сообщение 10 мар 2018, 13:20 

[Цитировать]

Claudio Monteverdi - Madrigals Book 3 - Delitiæ Musicæ, Marco Longhini

Жанр: Classical, madrigal
Год издания диска: 2004
Издатель (лейбл): Naxos
Номер по каталогу: 8.555309
Дата записи: 2002
Аудиокодек: FLAC
Тип рипа: image+.cue
Битрейт аудио: lossless
Продолжительность: 69:06
Источник: собственный рип
Наличие сканов в содержимом раздачи: да
Треклист:
Claudio Monteverdi (1567-1643)
Il Terzo Libro de’ Madrigali, 1592
[1] La giovinetta pianta
[2] O come è gran martire
[3] Sovra tenere erbette è bianchi fiori
[4] O dolce anima mia, dunque è pur vero
[5] Stracciami pur il core
[6] O rossignuol ch'in queste verdi fronde
[7] Se per estremo ardore
[8] Vattene pur crudel, con quella pace - Prima parte
[9] Là tra'l sangue e le morti egro giacente - Seconda parte
[10] Poi ch'ella in sé tornò, deserto e muto - Terza e ultima parte
[11] O primavera, gioventu de l'anno
[12] Perfidissimo volto
[13] Ch'io non t'ami, cor mio?
[14] Occhi, un tempo mia vita
[15] Vivrò fra i miei tormenti e le mie cure - Prima parte
[16] Ma dove, oh lasso me! - Seconda parte
[17] Io pur verrò là dove sète - Terza e ultima parte
[18] Lumi, miei cari lumi
[19] Rimanti in pace - Prima parte
[20] Ond'ei, di morte la sua faccia impressa - Seconda parte
Исполнители:
Delitiæ Musicæ
Marco Longhini
Код:
Exact Audio Copy V1.0 beta 3 from 29. August 2011
EAC extraction logfile from 20. April 2012, 13:57
Delitiae Musicae, Marco Longhini / Monteverdi - Madrigals Book 3
Used drive  : Optiarc DVD+-RW AD-5170S   Adapter: 1  ID: 2
Read mode               : Secure
Utilize accurate stream : Yes
Defeat audio cache      : Yes
Make use of C2 pointers : No
Read offset correction                      : 48
Overread into Lead-In and Lead-Out          : No
Fill up missing offset samples with silence : Yes
Delete leading and trailing silent blocks   : No
Null samples used in CRC calculations       : Yes
Used interface                              : Native Win32 interface for Win NT & 2000
Used output format              : User Defined Encoder
Selected bitrate                : 896 kBit/s
Quality                         : High
Add ID3 tag                     : Yes
Command line compressor         : C:\Program Files\Exact Audio Copy\Flac\flac.exe
Additional command line options : -V -8 %source%
TOC of the extracted CD
     Track |   Start  |  Length  | Start sector | End sector
    ---------------------------------------------------------
        1  |  0:00.00 |  3:16.15 |         0    |    14714
        2  |  3:16.15 |  3:48.12 |     14715    |    31826
        3  |  7:04.27 |  3:39.05 |     31827    |    48256
        4  | 10:43.32 |  3:31.03 |     48257    |    64084
        5  | 14:14.35 |  3:13.35 |     64085    |    78594
        6  | 17:27.70 |  4:37.17 |     78595    |    99386
        7  | 22:05.12 |  3:28.13 |     99387    |   114999
        8  | 25:33.25 |  2:03.25 |    115000    |   124249
        9  | 27:36.50 |  3:21.15 |    124250    |   139339
       10  | 30:57.65 |  3:40.52 |    139340    |   155891
       11  | 34:38.42 |  3:33.53 |    155892    |   171919
       12  | 38:12.20 |  3:31.20 |    171920    |   187764
       13  | 41:43.40 |  5:11.25 |    187765    |   211114
       14  | 46:54.65 |  3:09.47 |    211115    |   225336
       15  | 50:04.37 |  1:43.15 |    225337    |   233076
       16  | 51:47.52 |  3:08.73 |    233077    |   247249
       17  | 54:56.50 |  2:44.65 |    247250    |   259614
       18  | 57:41.40 |  2:50.17 |    259615    |   272381
       19  | 60:31.57 |  3:55.58 |    272382    |   290064
       20  | 64:27.40 |  4:36.35 |    290065    |   310799
Range status and errors
Selected range
     Filename D:\temp\pics\Monteverdi - Madrigals Book 3\Monteverdi - Madrigals Book 3.wav
     Peak level 89.4 %
     Extraction speed 4.8 X
     Range quality 99.9 %
     Test CRC 6096B82E
     Copy CRC 6096B82E
     Copy OK
No errors occurred
End of status report
==== Log checksum 14DC12095CABBDFC84CFDAB0FDF97D4485B4D741596114CB117449E5DE727C77 ====


Скачать торрент 288.91 МБ


Download
Для скачивания .torrent файлов необходима регистрация
Сайт не распространяет и не хранит электронные версии произведений, а лишь предоставляет доступ к создаваемому пользователями каталогу ссылок на торрент-файлы, которые содержат только списки хеш-сумм

Страница 1 из 1

Ответить на тему

   Похожие торренты   Торрент 




cron