Регистрация ·  Логин: Пароль: Запомнить   · Забыли пароль?




Ответить на тему
Статистика раздачи
Размер: 300.65 МБ | Зарегистрирован: 10 мар 2018, 13:20 | .torrent скачан: 0 раз(а)
Сидеров: [ 3  | 0 байт/сек ]   Личеров: [ 1  | 0 байт/сек ]   DHT: [ 3 / 1 ]
Автор Сообщение

Модератор
Аватара пользователя

Стаж: 6 лет
Сообщения: 7870
Молдова

Сообщение 10 мар 2018, 13:20 

[Цитировать]

Claudio Monteverdi - Madrigals Book 2 - Delitiæ Musicæ, Marco Longhini

Жанр: Classical, madrigal
Год издания диска: 2003
Издатель (лейбл): Naxos
Номер по каталогу: 8.555308
Дата записи: 2001
Аудиокодек: FLAC
Тип рипа: image+.cue
Битрейт аудио: lossless
Продолжительность: 62:24
Источник: собственный рип
Наличие сканов в содержимом раздачи: да
Треклист:
Claudio Monteverdi (1567-1643)
Il Secondo Libro de Madrigali, 1590
[1] Non si levav'ancor l'alba novella
[2] E dicea l'una sospirand'allora
[3] Bevea Fillide mia
[4] Dolcissimi legami di parole amorose
[5] Non giacinti o narcisi
[6] Intorno a due vermiglie e vaghe labra
[7] Non son in queste rive
[8] Tutte le bocche belle
[9] Donna, nel mio ritorno il mio pensiero
[10] Quell'ombr'esser vorrei
[11] S'andasse Amor a caccia
[12] Mentr'io mirava fiso
[13] Ecco mormorar l'onde
[14] Dolcemente dormiva la mia Clori
[15] Se tu mi lassi, perfida, tuo danno
[16] La bocca onde l'asprissime parole
[17] Crudel, perché mi fuggi
[18] Questo specchio ti dono
[19] Non m'è grave 'l morire
[20] Ti spontò l'ali, Amor
[21] Cantai un tempo e se fu dolce il canto
Исполнители:
Delitiæ Musicæ
Marco Longhini
Код:
Exact Audio Copy V1.0 beta 3 from 29. August 2011
EAC extraction logfile from 20. April 2012, 12:00
Delitiae Musicae, Marco Longhini / Monteverdi - Madrigals Book 2
Used drive  : Optiarc DVD+-RW AD-5170S   Adapter: 1  ID: 2
Read mode               : Secure
Utilize accurate stream : Yes
Defeat audio cache      : Yes
Make use of C2 pointers : No
Read offset correction                      : 48
Overread into Lead-In and Lead-Out          : No
Fill up missing offset samples with silence : Yes
Delete leading and trailing silent blocks   : No
Null samples used in CRC calculations       : Yes
Used interface                              : Native Win32 interface for Win NT & 2000
Used output format              : User Defined Encoder
Selected bitrate                : 896 kBit/s
Quality                         : High
Add ID3 tag                     : Yes
Command line compressor         : C:\Program Files\Exact Audio Copy\Flac\flac.exe
Additional command line options : -V -8 %source%
TOC of the extracted CD
     Track |   Start  |  Length  | Start sector | End sector
    ---------------------------------------------------------
        1  |  0:00.00 |  4:38.00 |         0    |    20849
        2  |  4:38.00 |  4:50.47 |     20850    |    42646
        3  |  9:28.47 |  2:41.13 |     42647    |    54734
        4  | 12:09.60 |  3:06.47 |     54735    |    68731
        5  | 15:16.32 |  2:31.10 |     68732    |    80066
        6  | 17:47.42 |  3:10.70 |     80067    |    94386
        7  | 20:58.37 |  2:32.40 |     94387    |   105826
        8  | 23:31.02 |  2:12.33 |    105827    |   115759
        9  | 25:43.35 |  2:54.45 |    115760    |   128854
       10  | 28:38.05 |  2:45.27 |    128855    |   141256
       11  | 31:23.32 |  1:40.48 |    141257    |   148804
       12  | 33:04.05 |  3:04.20 |    148805    |   162624
       13  | 36:08.25 |  3:27.47 |    162625    |   178196
       14  | 39:35.72 |  3:36.70 |    178197    |   194466
       15  | 43:12.67 |  2:14.25 |    194467    |   204541
       16  | 45:27.17 |  2:33.43 |    204542    |   216059
       17  | 48:00.60 |  2:39.30 |    216060    |   228014
       18  | 50:40.15 |  3:12.27 |    228015    |   242441
       19  | 53:52.42 |  3:23.05 |    242442    |   257671
       20  | 57:15.47 |  3:07.20 |    257672    |   271716
       21  | 60:22.67 |  3:47.08 |    271717    |   288749
Range status and errors
Selected range
     Filename D:\temp\pics\Monteverdi - Madrigals Book 2\Monteverdi - Madrigals Book 2.wav
     Peak level 98.8 %
     Extraction speed 3.9 X
     Range quality 100.0 %
     Test CRC 0B677044
     Copy CRC 0B677044
     Copy OK
No errors occurred
End of status report
==== Log checksum EE5678A05180B2AB39AD29C21B51ED30BACBE199431F6C4AB2C7419070CFE6FE ====


Скачать торрент 300.65 МБ


Download
Для скачивания .torrent файлов необходима регистрация
Сайт не распространяет и не хранит электронные версии произведений, а лишь предоставляет доступ к создаваемому пользователями каталогу ссылок на торрент-файлы, которые содержат только списки хеш-сумм

Страница 1 из 1

Ответить на тему

   Похожие торренты   Торрент 




cron