Регистрация ·  Логин: Пароль: Запомнить   · Забыли пароль?




Ответить на тему
Статистика раздачи
Размер: 296.81 МБ | Зарегистрирован: 10 мар 2018, 13:20 | .torrent скачан: 0 раз(а)
Сидеров: [ 0  | 0 байт/сек ]   Личеров: [ 0  | 0 байт/сек ]   DHT: [ 0 / 0 ]
Автор Сообщение

Модератор
Аватара пользователя

Стаж: 6 лет
Сообщения: 7870
Молдова

Сообщение 10 мар 2018, 13:20 

[Цитировать]

Claudio Monteverdi - Madrigals Book 1 - Delitiæ Musicæ, Marco Longhini

Жанр: Classical, madrigal
Год издания диска: 2002
Издатель (лейбл): Naxos
Номер по каталогу: 8.555307
Дата записи: 2001
Аудиокодек: FLAC
Тип рипа: image+.cue
Битрейт аудио: lossless
Продолжительность: 63:47
Источник: собственный рип
Наличие сканов в содержимом раздачи: да
Треклист:
Claudio Monteverdi (1567-1643)
Il Primo Libro de' Madrigali, 1587
[1] Ch'ami la vita mia nel tuo bel nome
[2] Se per avervi, ohimè, donato il core
[3] A che tormi il ben mio
[4] Amor, per tua mercé vattene a quella
[5] Baci soavi e cari
[6] Se pur non mi consenti
[7] Filli cara ed amata
[8] Poiché del mio dolore
[9] Fumia la pastorella - prima parte
[10] Almo divino raggio - seconda parte
[11] Allora i pastor tutti - terza parte
[12] Se nel partir da voi
[13] Tra mille fiamme e tra mille catene
[14] Usciam, ninfe, omai fuor di questi boschi
[15] Questa ordi il laccio
[16] La vaga pastorella
[17] Amor s'il tuo ferire
[18] Donna s'io miro voi, giaccio divengo
[19] Ardo, si, ma non t'amo
[20] Ardi o gela a tua voglia - risposta
[21] Arsi ed alsi a mia voglia - contra risposta
Complete Secular Manuscript Works
[22] Voglio di vita uscir
[23] Fuggi cor
[24] Ahi, che si part'il mio sol
[25] Se d'un angel' il bel viso
[26] Lamento d'Olimpia
Исполнители:
Delitiæ Musicæ
Marco Longhini
Код:
Exact Audio Copy V1.0 beta 3 from 29. August 2011
EAC extraction logfile from 23. March 2012, 16:19
Delitiae Musicae, Marco Longhini / Monteverdi - Madrigals Book 1
Used drive  : Optiarc DVD+-RW AD-5170S   Adapter: 1  ID: 2
Read mode               : Secure
Utilize accurate stream : Yes
Defeat audio cache      : Yes
Make use of C2 pointers : No
Read offset correction                      : 48
Overread into Lead-In and Lead-Out          : No
Fill up missing offset samples with silence : Yes
Delete leading and trailing silent blocks   : No
Null samples used in CRC calculations       : Yes
Used interface                              : Native Win32 interface for Win NT & 2000
Used output format              : User Defined Encoder
Selected bitrate                : 896 kBit/s
Quality                         : High
Add ID3 tag                     : Yes
Command line compressor         : C:\Program Files\Exact Audio Copy\Flac\flac.exe
Additional command line options : -V -8 %source%
TOC of the extracted CD
     Track |   Start  |  Length  | Start sector | End sector
    ---------------------------------------------------------
        1  |  0:00.00 |  2:33.25 |         0    |    11499
        2  |  2:33.25 |  1:55.51 |     11500    |    20175
        3  |  4:29.01 |  2:27.65 |     20176    |    31265
        4  |  6:56.66 |  1:49.20 |     31266    |    39460
        5  |  8:46.11 |  3:10.32 |     39461    |    53742
        6  | 11:56.43 |  1:59.14 |     53743    |    62681
        7  | 13:55.57 |  1:58.53 |     62682    |    71584
        8  | 15:54.35 |  2:16.24 |     71585    |    81808
        9  | 18:10.59 |  0:47.53 |     81809    |    85386
       10  | 18:58.37 |  1:48.64 |     85387    |    93550
       11  | 20:47.26 |  1:41.37 |     93551    |   101162
       12  | 22:28.63 |  2:14.09 |    101163    |   111221
       13  | 24:42.72 |  2:05.42 |    111222    |   120638
       14  | 26:48.39 |  1:51.60 |    120639    |   129023
       15  | 28:40.24 |  1:38.57 |    129024    |   136430
       16  | 30:19.06 |  2:41.24 |    136431    |   148529
       17  | 33:00.30 |  2:04.29 |    148530    |   157858
       18  | 35:04.59 |  1:30.18 |    157859    |   164626
       19  | 36:35.02 |  1:24.28 |    164627    |   170954
       20  | 37:59.30 |  1:30.08 |    170955    |   177712
       21  | 39:29.38 |  1:44.52 |    177713    |   185564
       22  | 41:14.15 |  4:59.33 |    185565    |   208022
       23  | 46:13.48 |  1:44.27 |    208023    |   215849
       24  | 47:58.00 |  3:00.21 |    215850    |   229370
       25  | 50:58.21 |  2:51.40 |    229371    |   242235
       26  | 53:49.61 |  9:55.14 |    242236    |   286874
Range status and errors
Selected range
     Filename D:\temp\pics\Monteverdi - Madrigals Book 1\Monteverdi - Madrigals Book 1.wav
     Peak level 100.0 %
     Extraction speed 5.4 X
     Range quality 99.9 %
     Test CRC 1C2CD693
     Copy CRC 1C2CD693
     Copy OK
No errors occurred
End of status report
==== Log checksum 7DAFB5E3788F97E3756CF2ECBE04CD0C5F233DE483E71483BEF6C7F4FCAC4C72 ====


Скачать торрент 296.81 МБ


Download
Для скачивания .torrent файлов необходима регистрация
Сайт не распространяет и не хранит электронные версии произведений, а лишь предоставляет доступ к создаваемому пользователями каталогу ссылок на торрент-файлы, которые содержат только списки хеш-сумм

Страница 1 из 1

Ответить на тему

   Похожие торренты   Торрент 




cron