Регистрация ·  Логин: Пароль: Запомнить   · Забыли пароль?




Ответить на тему
Статистика раздачи
Размер: 469.55 МБ | Зарегистрирован: 10 мар 2018, 13:20 | .torrent скачан: 0 раз(а)
Сидеров: [ 0  | 0 байт/сек ]   Личеров: [ 0  | 0 байт/сек ]   DHT: [ 0 / 0 ]
Автор Сообщение

Модератор
Аватара пользователя

Стаж: 6 лет
Сообщения: 7870
Молдова

Сообщение 10 мар 2018, 13:20 

[Цитировать]

Mahler - Lieder und Gesange aud der Jugendzeit / Lieder eines fahrenden Gesellen / 12 Lieder aus "Des Knaben Wunderhorn" / 5 Ruckertlieder - Fischer-Dieskau, Barenboim

Жанр: Lied
Страна-производитель диска: EU
Год издания диска: 2005
Издатель (лейбл): EMI
Номер по каталогу: 4 76780 2
Дата записи: 1978
Аудиокодек: APE
Тип рипа: tracks+.cue
Битрейт аудио: lossless
Продолжительность: 2:01:15
Источник: скачано с
сайт-источник/ник/другое: web
Наличие сканов в содержимом раздачи: да
Треклист:
CD 1
Lieder und Gesange aus der Jugenzeit
01. Fruhlingsmorgen
02. Erinnerung
03. Hans und Grete
04. Serenade
05. Phantasie
06. Um schlimme Kinder artig zu machen
07. Ich ging mit Lust
08. Aus! Aus!
09. Starke Einbildungskraft
10. Zu Strassburg auf der Schanz'
11. Ablosung im Sommer
12. Schneiden und Meiden
13. Nicht wiedersehen
14. Selbstgefuhl
Lieder eines fahrenden Gesellen
15. Wenn mein Schatz Hochzeit macht
16. Ging heut morgen ubers Feld
17. Ich hab' ein gluhend' Messer
18. Die zwei blauen Augen
CD 2
Lieder aus Des Knaben Wunderhorn
01. Der Schildwache Nachtlied
02. Verlor' ne Muh'
03. Trost im Ungluck
04. Wer hat dies Liedlein erdacht?
05. Das irdische Leben
06. Des Antonius von Padua Fischpredigt
07. Rheinlegendchen
08. Lied des Verfolgten im Turm
09. Wo die schoenen Trompeten blasen
10. Lob des hohen Verstandes
11. Revelge
12. Der Tamboursg'sell
Ruckert-Lieder
13. Ich atmet' einen linden Duft!
14. Liebst du um Schonheit
15. Blicke mir nicht in die Lieder!
16. Ich bin der Welt abhanden gekommen
17. Um Mitternacht
Исполнители:
Dietrich Fischer-Dieskau, баритон
Daniel Barenboim, фортепьяно
EAC extraction logfile from 8. September 2006, 21:50 for CD
Mahler, Gustav (1860-1911) / Lieder, Fischer-Dieskau, Barenboim
Used drive : _NEC DVD_RW ND-4550A Adapter: 0 ID: 2
Read mode : Secure with NO C2, accurate stream, disable cache
Read offset correction : 48
Overread into Lead-In and Lead-Out : No
Used output format : Internal WAV Routines
44.100 Hz; 16 Bit; Stereo
Other options :
Fill up missing offset samples with silence : Yes
Delete leading and trailing silent blocks : No
Native Win32 interface for Win NT & 2000
Track 1
Filename D:\APE\01 - Lieder und Gesänge aus der Jugendzeit - Frühlingsmorgen.wav
Pre-gap length 0:00:02.00
Peak level 71.1 %
Track quality 100.0 %
Copy CRC 2437A317
Copy OK
Track 2
Filename D:\APE\02 - Lieder und Gesänge aus der Jugendzeit - Erinnerung.wav
Pre-gap length 0:00:04.30
Peak level 71.0 %
Track quality 100.0 %
Copy CRC 24627B27
Copy OK
Track 3
Filename D:\APE\03 - Lieder und Gesänge aus der Jugendzeit - Hans und Grete.wav
Pre-gap length 0:00:04.30
Peak level 64.8 %
Track quality 100.0 %
Copy CRC 27B72A36
Copy OK
Track 4
Filename D:\APE\04 - Lieder und Gesänge aus der Jugendzeit - Serenade.wav
Pre-gap length 0:00:04.17
Peak level 71.1 %
Track quality 99.8 %
Copy CRC 29025AAE
Copy OK
Track 5
Filename D:\APE\05 - Lieder und Gesänge aus der Jugendzeit - Phantasie.wav
Pre-gap length 0:00:06.28
Peak level 71.0 %
Track quality 99.9 %
Copy CRC AE885118
Copy OK
Track 6
Filename D:\APE\06 - Lieder und Gesänge aus der Jugendzeit - Um schlimme Kinder artig zu machen.wav
Pre-gap length 0:00:02.34
Peak level 71.1 %
Track quality 99.9 %
Copy CRC 04D18699
Copy OK
Track 7
Filename D:\APE\07 - Lieder und Gesänge aus der Jugendzeit - Ich ging mit Lust.wav
Pre-gap length 0:00:04.49
Peak level 71.1 %
Track quality 100.0 %
Copy CRC A9159F4B
Copy OK
Track 8
Filename D:\APE\08 - Lieder und Gesänge aus der Jugendzeit - Aus! Aus!.wav
Pre-gap length 0:00:06.14
Peak level 71.1 %
Track quality 100.0 %
Copy CRC F560C1B9
Copy OK
Track 9
Filename D:\APE\09 - Lieder und Gesänge aus der Jugendzeit - Starke Einbildungskraft.wav
Pre-gap length 0:00:03.35
Peak level 71.1 %
Track quality 100.0 %
Copy CRC DE7C8270
Copy OK
Track 10
Filename D:\APE\10 - Lieder und Gesänge aus der Jugendzeit - Zu Straßburg auf der Schanz'.wav
Pre-gap length 0:00:04.64
Peak level 64.8 %
Track quality 100.0 %
Copy CRC D89E87E3
Copy OK
Track 11
Filename D:\APE\11 - Lieder und Gesänge aus der Jugendzeit - Ablösung im Sommer.wav
Pre-gap length 0:00:04.43
Peak level 71.0 %
Track quality 100.0 %
Copy CRC 10F67D21
Copy OK
Track 12
Filename D:\APE\12 - Lieder und Gesänge aus der Jugendzeit - Scheiden und Meiden.wav
Pre-gap length 0:00:05.48
Peak level 71.1 %
Track quality 99.9 %
Copy CRC 5DAEF68A
Copy OK
Track 13
Filename D:\APE\13 - Lieder und Gesänge aus der Jugendzeit - Nicht wiedersehen!.wav
Pre-gap length 0:00:04.00
Peak level 71.0 %
Track quality 100.0 %
Copy CRC 01EE504F
Copy OK
Track 14
Filename D:\APE\14 - Lieder und Gesänge aus der Jugendzeit - Selbstgefühl.wav
Pre-gap length 0:00:05.20
Peak level 71.0 %
Track quality 100.0 %
Copy CRC E1E59CAB
Copy OK
Track 15
Filename D:\APE\15 - Lieder eines Fahrenden gesellen - Nr. 1- Wenn mein Schatz Hochzeit macht.wav
Pre-gap length 0:00:05.12
Peak level 64.8 %
Track quality 100.0 %
Copy CRC 04445D4B
Copy OK
Track 16
Filename D:\APE\16 - Lieder eines Fahrenden gesellen - Nr. 2- Ging heut morgen übers Feld.wav
Pre-gap length 0:00:05.03
Peak level 71.0 %
Track quality 100.0 %
Copy CRC 90EA1603
Copy OK
Track 17
Filename D:\APE\17 - Lieder eines Fahrenden gesellen - Nr. 3- Ich hab' ein glühend Messer.wav
Pre-gap length 0:00:05.11
Peak level 71.1 %
Track quality 100.0 %
Copy CRC E3473F41
Copy OK
Track 18
Filename D:\APE\18 - Lieder eines Fahrenden gesellen - Nr. 4- Die zwei blauen Augen.wav
Pre-gap length 0:00:03.61
Peak level 58.0 %
Track quality 100.0 %
Copy CRC 5DFF3FDB
Copy OK
No errors occured
End of status report
EAC extraction logfile from 8. September 2006, 22:07 for CD
Mahler, Gustav (1860-1911) / Lieder, Fischer-Dieskau, Barenboim, CD2
Used drive : _NEC DVD_RW ND-4550A Adapter: 0 ID: 2
Read mode : Secure with NO C2, accurate stream, disable cache
Read offset correction : 48
Overread into Lead-In and Lead-Out : No
Used output format : Internal WAV Routines
44.100 Hz; 16 Bit; Stereo
Other options :
Fill up missing offset samples with silence : Yes
Delete leading and trailing silent blocks : No
Native Win32 interface for Win NT & 2000
Track 1
Filename D:\APE\01 - Lieder aus 'des Knaben Wunderhorn' - Der Schildwache Nachtlied.wav
Pre-gap length 0:00:02.00
Peak level 71.0 %
Track quality 100.0 %
Copy CRC 83A241DE
Copy OK
Track 2
Filename D:\APE\02 - Lieder aus 'des Knaben Wunderhorn' - Verlor'ne Müh'.wav
Pre-gap length 0:00:04.63
Peak level 71.0 %
Track quality 100.0 %
Copy CRC 85100ECA
Copy OK
Track 3
Filename D:\APE\03 - Lieder aus 'des Knaben Wunderhorn' - Trost im Unglück.wav
Pre-gap length 0:00:05.07
Peak level 71.0 %
Track quality 100.0 %
Copy CRC 2812AD5C
Copy OK
Track 4
Filename D:\APE\04 - Lieder aus 'des Knaben Wunderhorn' - Wer hat dies Liedlein erdacht!.wav
Pre-gap length 0:00:03.16
Peak level 71.0 %
Track quality 100.0 %
Copy CRC E2EF0EF9
Copy OK
Track 5
Filename D:\APE\05 - Lieder aus 'des Knaben Wunderhorn' - Das irdische Leben.wav
Pre-gap length 0:00:03.73
Peak level 71.1 %
Track quality 100.0 %
Copy CRC 7F910D71
Copy OK
Track 6
Filename D:\APE\06 - Lieder aus 'des Knaben Wunderhorn' - Des Antonius von Padua Fischpredigt.wav
Pre-gap length 0:00:04.56
Peak level 65.3 %
Track quality 100.0 %
Copy CRC 5BA6064A
Copy OK
Track 7
Filename D:\APE\07 - Lieder aus 'des Knaben Wunderhorn' - Rheinlegendchen.wav
Pre-gap length 0:00:03.04
Peak level 71.0 %
Track quality 100.0 %
Copy CRC 654D08BE
Copy OK
Track 8
Filename D:\APE\08 - Lieder aus 'des Knaben Wunderhorn' - Lied des Verfolgten im Turm.wav
Pre-gap length 0:00:03.51
Peak level 71.1 %
Track quality 100.0 %
Copy CRC 986CD611
Copy OK
Track 9
Filename D:\APE\09 - Lieder aus 'des Knaben Wunderhorn' - Wo die schönen Trompeten blasen.wav
Pre-gap length 0:00:02.56
Peak level 71.0 %
Track quality 100.0 %
Copy CRC 314FA584
Copy OK
Track 10
Filename D:\APE\10 - Lieder aus 'des Knaben Wunderhorn' - Lob des hohen Verstandes.wav
Pre-gap length 0:00:04.37
Peak level 71.1 %
Track quality 99.9 %
Copy CRC D38125B2
Copy OK
Track 11
Filename D:\APE\11 - Lieder aus 'des Knaben Wunderhorn' - Revelge.wav
Pre-gap length 0:00:06.07
Peak level 71.0 %
Track quality 100.0 %
Copy CRC E52786C0
Copy OK
Track 12
Filename D:\APE\12 - Lieder aus 'des Knaben Wunderhorn' - Der Tamboursg'sell.wav
Pre-gap length 0:00:06.14
Peak level 71.0 %
Track quality 99.9 %
Copy CRC F5786738
Copy OK
Track 13
Filename D:\APE\13 - Rückert-Lieder - Nr. 1- Ich atmet' einen linden Duft.wav
Pre-gap length 0:00:04.69
Peak level 71.0 %
Track quality 100.0 %
Copy CRC 6E631615
Copy OK
Track 14
Filename D:\APE\14 - Rückert-Lieder - Nr. 2- Liebst du um Schönheit.wav
Pre-gap length 0:00:07.14
Peak level 71.0 %
Track quality 100.0 %
Copy CRC 95B0D7C7
Copy OK
Track 15
Filename D:\APE\15 - Rückert-Lieder - Nr. 3- Blicke mir nicht in die Lieder.wav
Pre-gap length 0:00:04.38
Peak level 71.1 %
Track quality 100.0 %
Copy CRC 233F2461
Copy OK
Track 16
Filename D:\APE\16 - Rückert-Lieder - Nr. 4- Ich bin der Welt abhanden gekommen.wav
Pre-gap length 0:00:05.46
Peak level 71.0 %
Track quality 100.0 %
Copy CRC D78C63E2
Copy OK
Track 17
Filename D:\APE\17 - Rückert-Lieder - Nr. 5- Um Mitternacht.wav
Pre-gap length 0:00:07.34
Peak level 71.0 %
Track quality 100.0 %
Copy CRC B2545B19
Copy OK
No errors occured
End of status report
REM DISCID FE0BE512
REM COMMENT "ExactAudioCopy v0.95b4"
CATALOG 0724347678028
PERFORMER "Mahler, Gustav (1860-1911)"
TITLE "Lieder, Fischer-Dieskau, Barenboim"
FILE "01 - Lieder und Gesänge aus der Jugendzeit - Frühlingsmorgen.ape" WAVE
TRACK 01 AUDIO
TITLE "Lieder und Gesänge aus der Jugendzeit - Frühlingsmorgen"
PERFORMER "Mahler, Gustav (1860-1911)"
ISRC GBAYC0500014
INDEX 01 00:00:00
FILE "02 - Lieder und Gesänge aus der Jugendzeit - Erinnerung.ape" WAVE
TRACK 02 AUDIO
TITLE "Lieder und Gesänge aus der Jugendzeit - Erinnerung"
PERFORMER "Mahler, Gustav (1860-1911)"
ISRC GBAYC0500015
PREGAP 00:04:30
INDEX 01 00:00:00
FILE "03 - Lieder und Gesänge aus der Jugendzeit - Hans und Grete.ape" WAVE
TRACK 03 AUDIO
TITLE "Lieder und Gesänge aus der Jugendzeit - Hans und Grete"
PERFORMER "Mahler, Gustav (1860-1911)"
ISRC GBAYC0500016
PREGAP 00:04:30
INDEX 01 00:00:00
FILE "04 - Lieder und Gesänge aus der Jugendzeit - Serenade.ape" WAVE
TRACK 04 AUDIO
TITLE "Lieder und Gesänge aus der Jugendzeit - Serenade"
PERFORMER "Mahler, Gustav (1860-1911)"
ISRC GBAYC0500017
PREGAP 00:04:17
INDEX 01 00:00:00
FILE "05 - Lieder und Gesänge aus der Jugendzeit - Phantasie.ape" WAVE
TRACK 05 AUDIO
TITLE "Lieder und Gesänge aus der Jugendzeit - Phantasie"
PERFORMER "Mahler, Gustav (1860-1911)"
ISRC GBAYC0500018
PREGAP 00:06:28
INDEX 01 00:00:00
FILE "06 - Lieder und Gesänge aus der Jugendzeit - Um schlimme Kinder artig zu machen.ape" WAVE
TRACK 06 AUDIO
TITLE "Lieder und Gesänge aus der Jugendzeit - Um schlimme Kinder artig zu machen"
PERFORMER "Mahler, Gustav (1860-1911)"
ISRC GBAYC0500020
PREGAP 00:02:34
INDEX 01 00:00:00
FILE "07 - Lieder und Gesänge aus der Jugendzeit - Ich ging mit Lust.ape" WAVE
TRACK 07 AUDIO
TITLE "Lieder und Gesänge aus der Jugendzeit - Ich ging mit Lust"
PERFORMER "Mahler, Gustav (1860-1911)"
ISRC GBAYC0500021
PREGAP 00:04:49
INDEX 01 00:00:00
FILE "08 - Lieder und Gesänge aus der Jugendzeit - Aus! Aus!.ape" WAVE
TRACK 08 AUDIO
TITLE "Lieder und Gesänge aus der Jugendzeit - Aus! Aus!"
PERFORMER "Mahler, Gustav (1860-1911)"
ISRC GBAYC0500022
PREGAP 00:06:14
INDEX 01 00:00:00
FILE "09 - Lieder und Gesänge aus der Jugendzeit - Starke Einbildungskraft.ape" WAVE
TRACK 09 AUDIO
TITLE "Lieder und Gesänge aus der Jugendzeit - Starke Einbildungskraft"
PERFORMER "Mahler, Gustav (1860-1911)"
ISRC GBAYC0500023
PREGAP 00:03:35
INDEX 01 00:00:00
FILE "10 - Lieder und Gesänge aus der Jugendzeit - Zu Straßburg auf der Schanz'.ape" WAVE
TRACK 10 AUDIO
TITLE "Lieder und Gesänge aus der Jugendzeit - Zu Straßburg auf der Schanz'"
PERFORMER "Mahler, Gustav (1860-1911)"
ISRC GBAYC0500024
PREGAP 00:04:64
INDEX 01 00:00:00
FILE "11 - Lieder und Gesänge aus der Jugendzeit - Ablösung im Sommer.ape" WAVE
TRACK 11 AUDIO
TITLE "Lieder und Gesänge aus der Jugendzeit - Ablösung im Sommer"
PERFORMER "Mahler, Gustav (1860-1911)"
ISRC GBAYC0500025
PREGAP 00:04:43
INDEX 01 00:00:00
FILE "12 - Lieder und Gesänge aus der Jugendzeit - Scheiden und Meiden.ape" WAVE
TRACK 12 AUDIO
TITLE "Lieder und Gesänge aus der Jugendzeit - Scheiden und Meiden"
PERFORMER "Mahler, Gustav (1860-1911)"
ISRC GBAYC0500026
PREGAP 00:05:48
INDEX 01 00:00:00
FILE "13 - Lieder und Gesänge aus der Jugendzeit - Nicht wiedersehen!.ape" WAVE
TRACK 13 AUDIO
TITLE "Lieder und Gesänge aus der Jugendzeit - Nicht wiedersehen!"
PERFORMER "Mahler, Gustav (1860-1911)"
ISRC GBAYC0500027
PREGAP 00:04:00
INDEX 01 00:00:00
FILE "14 - Lieder und Gesänge aus der Jugendzeit - Selbstgefühl.ape" WAVE
TRACK 14 AUDIO
TITLE "Lieder und Gesänge aus der Jugendzeit - Selbstgefühl"
PERFORMER "Mahler, Gustav (1860-1911)"
ISRC GBAYC0500028
PREGAP 00:05:20
INDEX 01 00:00:00
FILE "15 - Lieder eines Fahrenden gesellen - Nr. 1- Wenn mein Schatz Hochzeit macht.ape" WAVE
TRACK 15 AUDIO
TITLE "Lieder eines Fahrenden gesellen - Nr. 1: Wenn mein Schatz Hochzeit macht"
PERFORMER "Mahler, Gustav (1860-1911)"
ISRC GBAYC0500030
PREGAP 00:05:12
INDEX 01 00:00:00
FILE "16 - Lieder eines Fahrenden gesellen - Nr. 2- Ging heut morgen übers Feld.ape" WAVE
TRACK 16 AUDIO
TITLE "Lieder eines Fahrenden gesellen - Nr. 2: Ging heut morgen übers Feld"
PERFORMER "Mahler, Gustav (1860-1911)"
ISRC GBAYC0500031
PREGAP 00:05:03
INDEX 01 00:00:00
FILE "17 - Lieder eines Fahrenden gesellen - Nr. 3- Ich hab' ein glühend Messer.ape" WAVE
TRACK 17 AUDIO
TITLE "Lieder eines Fahrenden gesellen - Nr. 3: Ich hab' ein glühend Messer"
PERFORMER "Mahler, Gustav (1860-1911)"
ISRC GBAYC0500032
PREGAP 00:05:11
INDEX 01 00:00:00
FILE "18 - Lieder eines Fahrenden gesellen - Nr. 4- Die zwei blauen Augen.ape" WAVE
TRACK 18 AUDIO
TITLE "Lieder eines Fahrenden gesellen - Nr. 4: Die zwei blauen Augen"
PERFORMER "Mahler, Gustav (1860-1911)"
ISRC GBAYC0500033
PREGAP 00:03:61
INDEX 01 00:00:00
REM DISCID FB108711
REM COMMENT "ExactAudioCopy v0.95b4"
CATALOG 0724347678226
PERFORMER "Mahler, Gustav (1860-1911)"
TITLE "Lieder, Fischer-Dieskau, Barenboim, CD2"
FILE "01 - Lieder aus 'des Knaben Wunderhorn' - Der Schildwache Nachtlied.ape" WAVE
TRACK 01 AUDIO
TITLE "Lieder aus 'des Knaben Wunderhorn' - Der Schildwache Nachtlied"
PERFORMER "Mahler, Gustav (1860-1911)"
ISRC GBAYC0500035
INDEX 01 00:00:00
FILE "02 - Lieder aus 'des Knaben Wunderhorn' - Verlor'ne Müh'.ape" WAVE
TRACK 02 AUDIO
TITLE "Lieder aus 'des Knaben Wunderhorn' - Verlor'ne Müh'"
PERFORMER "Mahler, Gustav (1860-1911)"
ISRC GBAYC0500036
PREGAP 00:04:63
INDEX 01 00:00:00
FILE "03 - Lieder aus 'des Knaben Wunderhorn' - Trost im Unglück.ape" WAVE
TRACK 03 AUDIO
TITLE "Lieder aus 'des Knaben Wunderhorn' - Trost im Unglück"
PERFORMER "Mahler, Gustav (1860-1911)"
ISRC GBAYC0500037
PREGAP 00:05:07
INDEX 01 00:00:00
FILE "04 - Lieder aus 'des Knaben Wunderhorn' - Wer hat dies Liedlein erdacht!.ape" WAVE
TRACK 04 AUDIO
TITLE "Lieder aus 'des Knaben Wunderhorn' - Wer hat dies Liedlein erdacht!"
PERFORMER "Mahler, Gustav (1860-1911)"
ISRC GBAYC0500038
PREGAP 00:03:16
INDEX 01 00:00:00
FILE "05 - Lieder aus 'des Knaben Wunderhorn' - Das irdische Leben.ape" WAVE
TRACK 05 AUDIO
TITLE "Lieder aus 'des Knaben Wunderhorn' - Das irdische Leben"
PERFORMER "Mahler, Gustav (1860-1911)"
ISRC GBAYC0500039
PREGAP 00:03:73
INDEX 01 00:00:00
FILE "06 - Lieder aus 'des Knaben Wunderhorn' - Des Antonius von Padua Fischpredigt.ape" WAVE
TRACK 06 AUDIO
TITLE "Lieder aus 'des Knaben Wunderhorn' - Des Antonius von Padua Fischpredigt"
PERFORMER "Mahler, Gustav (1860-1911)"
ISRC GBAYC0500040
PREGAP 00:04:56
INDEX 01 00:00:00
FILE "07 - Lieder aus 'des Knaben Wunderhorn' - Rheinlegendchen.ape" WAVE
TRACK 07 AUDIO
TITLE "Lieder aus 'des Knaben Wunderhorn' - Rheinlegendchen"
PERFORMER "Mahler, Gustav (1860-1911)"
ISRC GBAYC0500041
PREGAP 00:03:04
INDEX 01 00:00:00
FILE "08 - Lieder aus 'des Knaben Wunderhorn' - Lied des Verfolgten im Turm.ape" WAVE
TRACK 08 AUDIO
TITLE "Lieder aus 'des Knaben Wunderhorn' - Lied des Verfolgten im Turm"
PERFORMER "Mahler, Gustav (1860-1911)"
ISRC GBAYC0500042
PREGAP 00:03:51
INDEX 01 00:00:00
FILE "09 - Lieder aus 'des Knaben Wunderhorn' - Wo die schönen Trompeten blasen.ape" WAVE
TRACK 09 AUDIO
TITLE "Lieder aus 'des Knaben Wunderhorn' - Wo die schönen Trompeten blasen"
PERFORMER "Mahler, Gustav (1860-1911)"
ISRC GBAYC0500043
PREGAP 00:02:56
INDEX 01 00:00:00
FILE "10 - Lieder aus 'des Knaben Wunderhorn' - Lob des hohen Verstandes.ape" WAVE
TRACK 10 AUDIO
TITLE "Lieder aus 'des Knaben Wunderhorn' - Lob des hohen Verstandes"
PERFORMER "Mahler, Gustav (1860-1911)"
ISRC GBAYC0500044
PREGAP 00:04:37
INDEX 01 00:00:00
FILE "11 - Lieder aus 'des Knaben Wunderhorn' - Revelge.ape" WAVE
TRACK 11 AUDIO
TITLE "Lieder aus 'des Knaben Wunderhorn' - Revelge"
PERFORMER "Mahler, Gustav (1860-1911)"
ISRC GBAYC0500045
PREGAP 00:06:07
INDEX 01 00:00:00
FILE "12 - Lieder aus 'des Knaben Wunderhorn' - Der Tamboursg'sell.ape" WAVE
TRACK 12 AUDIO
TITLE "Lieder aus 'des Knaben Wunderhorn' - Der Tamboursg'sell"
PERFORMER "Mahler, Gustav (1860-1911)"
ISRC GBAYC0500046
PREGAP 00:06:14
INDEX 01 00:00:00
FILE "13 - Rückert-Lieder - Nr. 1- Ich atmet' einen linden Duft.ape" WAVE
TRACK 13 AUDIO
TITLE "Rückert-Lieder - Nr. 1: Ich atmet' einen linden Duft"
PERFORMER "Mahler, Gustav (1860-1911)"
ISRC GBAYC0500048
PREGAP 00:04:69
INDEX 01 00:00:00
FILE "14 - Rückert-Lieder - Nr. 2- Liebst du um Schönheit.ape" WAVE
TRACK 14 AUDIO
TITLE "Rückert-Lieder - Nr. 2: Liebst du um Schönheit"
PERFORMER "Mahler, Gustav (1860-1911)"
ISRC GBAYC0500049
PREGAP 00:07:14
INDEX 01 00:00:00
FILE "15 - Rückert-Lieder - Nr. 3- Blicke mir nicht in die Lieder.ape" WAVE
TRACK 15 AUDIO
TITLE "Rückert-Lieder - Nr. 3: Blicke mir nicht in die Lieder"
PERFORMER "Mahler, Gustav (1860-1911)"
ISRC GBAYC0500050
PREGAP 00:04:38
INDEX 01 00:00:00
FILE "16 - Rückert-Lieder - Nr. 4- Ich bin der Welt abhanden gekommen.ape" WAVE
TRACK 16 AUDIO
TITLE "Rückert-Lieder - Nr. 4: Ich bin der Welt abhanden gekommen"
PERFORMER "Mahler, Gustav (1860-1911)"
ISRC GBAYC0500051
PREGAP 00:05:46
INDEX 01 00:00:00
FILE "17 - Rückert-Lieder - Nr. 5- Um Mitternacht.ape" WAVE
TRACK 17 AUDIO
TITLE "Rückert-Lieder - Nr. 5: Um Mitternacht"
PERFORMER "Mahler, Gustav (1860-1911)"
ISRC GBAYC0500052
PREGAP 00:07:34
INDEX 01 00:00:00
AUDIOCHECKER v2.0 beta (build 457) - by Dester - [email protected]
~~~~~~~~~~~~~~~~~~~~~~~~~~~~~~~~~~
-=== DO NOT EDIT THIS FILE! ===-
Path: ...\CD1
01 -=- 18 - Lieder eines Fahrenden gesellen - Nr. 4- Die zwei blauen Augen.ape -=- CDDA (100%)
02 -=- 01 - Lieder und Gesänge aus der Jugendzeit - Frühlingsmorgen.ape -=- CDDA (100%)
03 -=- 02 - Lieder und Gesänge aus der Jugendzeit - Erinnerung.ape -=- CDDA (99%)
04 -=- 03 - Lieder und Gesänge aus der Jugendzeit - Hans und Grete.ape -=- CDDA (100%)
05 -=- 04 - Lieder und Gesänge aus der Jugendzeit - Serenade.ape -=- CDDA (99%)
06 -=- 05 - Lieder und Gesänge aus der Jugendzeit - Phantasie.ape -=- CDDA (100%)
07 -=- 06 - Lieder und Gesänge aus der Jugendzeit - Um schlimme Kinder artig zu machen.ape -=- CDDA (99%)
08 -=- 07 - Lieder und Gesänge aus der Jugendzeit - Ich ging mit Lust.ape -=- CDDA (99%)
09 -=- 08 - Lieder und Gesänge aus der Jugendzeit - Aus! Aus!.ape -=- CDDA (100%)
10 -=- 09 - Lieder und Gesänge aus der Jugendzeit - Starke Einbildungskraft.ape -=- CDDA (100%)
11 -=- 10 - Lieder und Gesänge aus der Jugendzeit - Zu Straßburg auf der Schanz'.ape -=- CDDA (100%)
12 -=- 11 - Lieder und Gesänge aus der Jugendzeit - Ablösung im Sommer.ape -=- CDDA (100%)
13 -=- 12 - Lieder und Gesänge aus der Jugendzeit - Scheiden und Meiden.ape -=- CDDA (100%)
14 -=- 13 - Lieder und Gesänge aus der Jugendzeit - Nicht wiedersehen!.ape -=- CDDA (100%)
15 -=- 14 - Lieder und Gesänge aus der Jugendzeit - Selbstgefühl.ape -=- CDDA (100%)
16 -=- 15 - Lieder eines Fahrenden gesellen - Nr. 1- Wenn mein Schatz Hochzeit macht.ape -=- CDDA (100%)
17 -=- 16 - Lieder eines Fahrenden gesellen - Nr. 2- Ging heut morgen übers Feld.ape -=- CDDA (100%)
18 -=- 17 - Lieder eines Fahrenden gesellen - Nr. 3- Ich hab' ein glühend Messer.ape -=- CDDA (100%)
Summary 99,78% CDDA
134947748
AUDIOCHECKER v2.0 beta (build 457) - by Dester - [email protected]
~~~~~~~~~~~~~~~~~~~~~~~~~~~~~~~~~~
-=== DO NOT EDIT THIS FILE! ===-
Path: ...\CD2
01 -=- 17 - Rückert-Lieder - Nr. 5- Um Mitternacht.ape -=- CDDA (100%)
02 -=- 01 - Lieder aus 'des Knaben Wunderhorn' - Der Schildwache Nachtlied.ape -=- CDDA (100%)
03 -=- 02 - Lieder aus 'des Knaben Wunderhorn' - Verlor'ne Müh'.ape -=- CDDA (100%)
04 -=- 03 - Lieder aus 'des Knaben Wunderhorn' - Trost im Unglück.ape -=- CDDA (99%)
05 -=- 04 - Lieder aus 'des Knaben Wunderhorn' - Wer hat dies Liedlein erdacht!.ape -=- CDDA (100%)
06 -=- 05 - Lieder aus 'des Knaben Wunderhorn' - Das irdische Leben.ape -=- CDDA (100%)
07 -=- 06 - Lieder aus 'des Knaben Wunderhorn' - Des Antonius von Padua Fischpredigt.ape -=- CDDA (100%)
08 -=- 07 - Lieder aus 'des Knaben Wunderhorn' - Rheinlegendchen.ape -=- CDDA (100%)
09 -=- 08 - Lieder aus 'des Knaben Wunderhorn' - Lied des Verfolgten im Turm.ape -=- CDDA (100%)
10 -=- 09 - Lieder aus 'des Knaben Wunderhorn' - Wo die schönen Trompeten blasen.ape -=- CDDA (100%)
11 -=- 10 - Lieder aus 'des Knaben Wunderhorn' - Lob des hohen Verstandes.ape -=- CDDA (100%)
12 -=- 11 - Lieder aus 'des Knaben Wunderhorn' - Revelge.ape -=- CDDA (100%)
13 -=- 12 - Lieder aus 'des Knaben Wunderhorn' - Der Tamboursg'sell.ape -=- CDDA (100%)
14 -=- 13 - Rückert-Lieder - Nr. 1- Ich atmet' einen linden Duft.ape -=- CDDA (100%)
15 -=- 14 - Rückert-Lieder - Nr. 2- Liebst du um Schönheit.ape -=- CDDA (100%)
16 -=- 15 - Rückert-Lieder - Nr. 3- Blicke mir nicht in die Lieder.ape -=- CDDA (100%)
17 -=- 16 - Rückert-Lieder - Nr. 4- Ich bin der Welt abhanden gekommen.ape -=- CDDA (99%)
Summary 99,88% CDDA
46158100


Скачать торрент 469.55 МБ


Download
Для скачивания .torrent файлов необходима регистрация
Сайт не распространяет и не хранит электронные версии произведений, а лишь предоставляет доступ к создаваемому пользователями каталогу ссылок на торрент-файлы, которые содержат только списки хеш-сумм

Страница 1 из 1

Ответить на тему

   Похожие торренты   Торрент 




cron