Регистрация ·  Логин: Пароль: Запомнить   · Забыли пароль?




Ответить на тему
Статистика раздачи
Размер: 253.04 МБ | Зарегистрирован: 10 мар 2018, 13:20 | .torrent скачан: 0 раз(а)
Сидеров: [ 1  | 0 байт/сек ]   Личеров: [ 0  | 0 байт/сек ]   DHT: [ 1 / 0 ]
Автор Сообщение

Модератор
Аватара пользователя

Стаж: 6 лет
Сообщения: 7870
Молдова

Сообщение 10 мар 2018, 13:20 

[Цитировать]

Kurt Weill / The Seven Deadly Sins & Mahagonny - König-Ensemble, Solists & Jan Latham-König (Conductor) - 1993

Жанр: Classical
Год выпуска диска: 1993
Производитель диска: CAPRICCIO
Аудио кодек: APE
Тип рипа: image+.cue
Битрейт аудио: lossless
Продолжительность: 60' 10''
Kurt Weill / The Seven Deadly Sins & Mahagonny - König-Ensemble, Solists & Jan Latham-König (Conductor) - 1993
Tracklist:
01. The Seven Deadly Sins: Prolog [0:03:21.67]
02. Sloth [0:03:49.28]
03. Pride [0:04:30.60]
04. Anger [0:04:40.50]
05. Gluttony [0:03:52.07]
06. Lust [0:04:36.23]
07. Avarice [0:03:16.67]
08. Envy [0:01:49.08]
09. Epilogue [0:04:22.65]
10. Mahagonny: Auf nach Mahagonny [0:03:00.62]
11. Alabama Song [0:04:02.40]
12. Wer in Mahagonny blieb [0:04:19.68]
13. Benares Song [0:05:58.25]
14. Gott In Mahagonny [0:06:00.15]
15. Aber dieses ganze Mahagonny [0:02:29.10]
01-09-The Seven Deadly Sins-Text Bertolt Brecht (Version for low voice)
Anna I & II- Doris Bierett- Familie: Dieter Ellenbeck (Tenor I); Karl Markus (Tenor II); Carlos Felker (Bariton); Malcom Smith (Bass)
Kolner Rudfunkerorchester
Lothar Zagrosek (Conductor)
Mahagony Songspiel - Text Bertolt Brecht
10-11-Part 1: Prologue
12-14-Part2: Life in Mahagony
15-Part 3: revolution in Mahagony
Jessie: Trudelise Schmidt (Mezzosopran)
Bessie: Gabriele Ramm (Sopran)
Billy: Horst Hiestermann (Tenor)
Bobby Peter Nikolaus Kante (Tenor)
Charlie: Walter Raffeiner (Bariton)
Jimmy: Hans Franzen (Bariton)
König-Ensemble
Jan Latham-König (Conductor)
Total Time: 60' 10''
Exact Audio Copy V0.99 prebeta 4 from 23. January 2008
EAC extraction logfile from 2. September 2009, 9:45
Kurt Weill / The Seven Deadly Sins & Mahagonny
Used drive : TSSTcorpCDDVDW TS-L632H Adapter: 2 ID: 0
Read mode : Secure
Utilize accurate stream : Yes
Defeat audio cache : Yes
Make use of C2 pointers : No
Read offset correction : 6
Overread into Lead-In and Lead-Out : No
Fill up missing offset samples with silence : Yes
Delete leading and trailing silent blocks : No
Null samples used in CRC calculations : Yes
Used interface : Native Win32 interface for Win NT & 2000
Used output format : Monkey's Audio Lossless Encoder v3.99 DLL
Sample format : Normal Lossless Compression
TOC of the extracted CD
Track | Start | Length | Start sector | End sector
---------------------------------------------------------
1 | 0:00.38 | 3:21.67 | 38 | 15179
2 | 3:22.30 | 3:49.28 | 15180 | 32382
3 | 7:11.58 | 4:30.60 | 32383 | 52692
4 | 11:42.43 | 4:40.50 | 52693 | 73742
5 | 16:23.18 | 3:52.07 | 73743 | 91149
6 | 20:15.25 | 4:36.23 | 91150 | 111872
7 | 24:51.48 | 3:16.67 | 111873 | 126639
8 | 28:08.40 | 1:49.08 | 126640 | 134822
9 | 29:57.48 | 4:22.65 | 134823 | 154537
10 | 34:20.38 | 3:00.62 | 154538 | 168099
11 | 37:21.25 | 4:02.40 | 168100 | 186289
12 | 41:23.65 | 4:19.68 | 186290 | 205782
13 | 45:43.58 | 5:58.25 | 205783 | 232657
14 | 51:42.08 | 6:00.15 | 232658 | 259672
15 | 57:42.23 | 2:29.10 | 259673 | 270857
Range status and errors
Selected range
Filename C:\Users\horacio\Desktop\Kurt Weill - The Seven Deadly Sins & Mahagonny.ape
Peak level 95.5 %
Range quality 100.0 %
Test CRC 2CB50EC3
Copy CRC 2CB50EC3
Copy OK
No errors occurred
AccurateRip summary
Track 1 accurately ripped (confidence 1) [B3326B84]
Track 2 accurately ripped (confidence 1) [6C2F4EF6]
Track 3 accurately ripped (confidence 1) [DF981D35]
Track 4 accurately ripped (confidence 1) [E3575B49]
Track 5 accurately ripped (confidence 1) [D70CEAF0]
Track 6 accurately ripped (confidence 1) [FC03FE02]
Track 7 accurately ripped (confidence 1) [02C2B812]
Track 8 accurately ripped (confidence 1) [BD8B4A51]
Track 9 accurately ripped (confidence 1) [123A7DBD]
Track 10 accurately ripped (confidence 1) [6452B13B]
Track 11 accurately ripped (confidence 1) [7943CD94]
Track 12 accurately ripped (confidence 1) [2E19F813]
Track 13 accurately ripped (confidence 1) [9E6E4E2B]
Track 14 accurately ripped (confidence 1) [F9194F3B]
Track 15 accurately ripped (confidence 1) [DC40EB9B]
All tracks accurately ripped
End of status report


Скачать торрент 253.04 МБ


Download
Для скачивания .torrent файлов необходима регистрация
Сайт не распространяет и не хранит электронные версии произведений, а лишь предоставляет доступ к создаваемому пользователями каталогу ссылок на торрент-файлы, которые содержат только списки хеш-сумм

Страница 1 из 1

Ответить на тему

   Похожие торренты   Торрент