Регистрация ·  Логин: Пароль: Запомнить   · Забыли пароль?




Ответить на тему
Статистика раздачи
Размер: 712.63 МБ | Зарегистрирован: 10 мар 2018, 13:20 | .torrent скачан: 0 раз(а)
Сидеров: [ 5  | 0 байт/сек ]   Личеров: [ 1  | 0 байт/сек ]   DHT: [ 5 / 1 ]
Автор Сообщение

Модератор
Аватара пользователя

Стаж: 6 лет
Сообщения: 7870
Молдова

Сообщение 10 мар 2018, 13:20 

[Цитировать]

Gala der drei Tenöre - Три Величайших Тенора - 3CD (Carreras, Domingo, Pavarotti)

Жанр: Classical/Vocal
Год выпуска диска: 1994
Производитель диска: Germany (Sony Music Entertainment)
Аудио кодек: APE
Тип рипа: image+.cue
Битрейт аудио: lossless
Продолжительность: CD1 51:12 / CD2 58:38 / CD3 57:14
Трэклист:
01. Rodgers : South Pacific - Some Enchanted Evening 3:17
London Symphony Orchestra; Dir .: Jonathan Tunick
02. Bellini : La Ricordanza 5:19
Matin Katz, Klavier
03. Giordano : Andrea Chenier - Come un bel di di maggio 3:14
Hungarian State Orchestra; Dir.: Giuseppe Patané
04. Schubert : Ave Maria 4:28
05. Puccini : Tosca - E lucevan le stelle 3:05
Hungarian State Orchestra; Dir.: Tilson Thomas
06. Donizetti : Amor marinaro 2:36
Matin Katz, Klavier
07. Puccini : Turandot - Nessun dorma ! 3:22
Orchester der Wiener Staatsoper; Dir.: Lorin Maazel
08. Donizetti : Poliuto - Sfolgero divino raggio 1:39
Wiener Symphoniker; Dir.: Oleg Caetani
Sechs Katalanische Lieder (Шесть каталонских песен) :
09. El chant dels ocells 3:20
10. T´estimo 2:39
11. Pel teu amor 4:43
12. Damunt de tu, només les flors 4:02
13. Cancó de passar cantant 2:46
14. Cancó de grumet 2:31
Symphony Orchestra of the Gran Teatro del Liceu de Barcelona; Dir.: Joan Casas
15. Brahms : Guten Abend, Gute Nacht 2:58
Hungarian State Orchestra; Dir.: Giuseppe Patané
01. Donizetti : L´Elisier d´amore - Una furtiva lagrima 4:31
02. Donizetti : L´Elisier d´amore - Venti scudi 7:05
Orchestra of the Royal Opera House, Covent Garden; Dir.: John Pritchard
03. Puccini : Le Villi - Roberto´s Arie 6:23
04. Puccini : Madame Butterfly - Addio fiorito asil 2:01
05. Puccini : Gianni schicchi - Firenze é come un albero fiorito 2:06
London Symphony Orchestra; Dir.: Lorin Maazel
06. Boito : Mefistofele - Dai campi, dai prati 2:11
Hungarian State Orchestra; Dir.: Giuseppe Patané
07. Massenet : Le Cid - Rodrigo´s Gebet 3:29
Opera Orchestra of New York; Dir.: Eve Queler
08. Verdi : La Traviata - Lunge da lei 4:33
09. Mascagni : Freund Fritz - Suzel, buon di 8:27
Adriana Morell, Sopran
10. Le´har : Giuditta - Freunde, das Leben ist lebenswert 2:44
11. Lara : Granada 4:15
12. Tosti : Ideale 4:25
13. Gastaldon : Musica Proibita 3:47
New York Philarmonic Orchestra; Dir.: Zubin Mehta
14. Serrano : Te quiero, morena
ORF Symphony Orchester; Dir.: Garcia Navarro
Giuseppe Verdi (01-06)
01. Die beiden Foscari - Dal piú remoto esilio 5:07
02. Die beiden Foscari - Si, lo sento iddio mi chiama 4:10
03. Die sizilianische Vesper - A toi que J´ai chérie 3:53
04. Ernani - Odil il voto 4:40
05. Attia - Oh dolore 3:35
06. Attila - lo la vidi 7:04
Orchestra del Teatro alla Scala; Dir.: Claudio Abbado
07. Verdi : Rigoletto - La Donna e mobile 2:11
08. Puccini : La Bohéme - Che gelida manina 4:11
09. Giordano : Fedora - Amor ti vieta 1:52
10. Bixio : Mamma 3:00
11. Buzzi/Peccia : Lolita 2:58
12. Bixio : La mia canzone al vento 3:00
13. di Capua : O sole mio 2:57
14. di Lazzaro : Chitarra romana 3:26
15. de Crescendo : Rondine al nido 4:17
Symphony Orchestra of Emilia Romagna "Arturo Toscanini"; Dir.: Emerson Buckley
CD 1
Exact Audio Copy V0.99 prebeta 5 from 4. May 2009
EAC extraction logfile from 3. November 2009, 19:44
José Carreras / Gala der drei Tenöre
Used drive : _NEC DVD_RW ND-4550A Adapter: 1 ID: 0
Read mode : Secure
Utilize accurate stream : Yes
Defeat audio cache : Yes
Make use of C2 pointers : No
Read offset correction : 48
Overread into Lead-In and Lead-Out : No
Fill up missing offset samples with silence : Yes
Delete leading and trailing silent blocks : No
Null samples used in CRC calculations : Yes
Used interface : Installed external ASPI interface
Used output format : Internal WAV Routines
Sample format : 44.100 Hz; 16 Bit; Stereo
TOC of the extracted CD
Track | Start | Length | Start sector | End sector
---------------------------------------------------------
1 | 0:00.00 | 3:19.00 | 0 | 14924
2 | 3:19.00 | 5:32.00 | 14925 | 39824
3 | 8:51.00 | 3:17.00 | 39825 | 54599
4 | 12:08.00 | 4:30.00 | 54600 | 74849
5 | 16:38.00 | 3:08.00 | 74850 | 88949
6 | 19:46.00 | 2:38.00 | 88950 | 100799
7 | 22:24.00 | 3:24.00 | 100800 | 116099
8 | 25:48.00 | 1:41.00 | 116100 | 123674
9 | 27:29.00 | 3:22.00 | 123675 | 138824
10 | 30:51.00 | 2:41.00 | 138825 | 150899
11 | 33:32.00 | 4:45.00 | 150900 | 172274
12 | 38:17.00 | 4:05.00 | 172275 | 190649
13 | 42:22.00 | 2:48.00 | 190650 | 203249
14 | 45:10.00 | 2:34.00 | 203250 | 214799
15 | 47:44.00 | 2:58.27 | 214800 | 228176
Range status and errors
Selected range
Filename C:\Dokumente und Einstellungen\Besitzer\Eigene Dateien\José Carreras - Gala der drei Tenöre.wav
Peak level 100.0 %
Range quality 99.9 %
Copy CRC 20502199
Copy OK
No errors occurred
AccurateRip summary
Track 1 accurately ripped (confidence 1) [F56C7304]
Track 2 accurately ripped (confidence 1) [E1B36E7A]
Track 3 accurately ripped (confidence 1) [88F22AE1]
Track 4 accurately ripped (confidence 1) [714C9591]
Track 5 accurately ripped (confidence 1) [DA25CC02]
Track 6 accurately ripped (confidence 1) [021E81A3]
Track 7 accurately ripped (confidence 1) [DEB0C647]
Track 8 accurately ripped (confidence 1) [95866481]
Track 9 accurately ripped (confidence 1) [ACD21A5B]
Track 10 accurately ripped (confidence 1) [0E2FF98A]
Track 11 accurately ripped (confidence 1) [6D242CEE]
Track 12 accurately ripped (confidence 1) [E66B08D4]
Track 13 accurately ripped (confidence 1) [57271A40]
Track 14 accurately ripped (confidence 1) [45A7B7FF]
Track 15 accurately ripped (confidence 1) [3AEFCB09]
All tracks accurately ripped
End of status report
CD 2
Exact Audio Copy V0.99 prebeta 5 from 4. May 2009
EAC extraction logfile from 3. November 2009, 20:50
Placido Domingo / Gala der drei Tenöre
Used drive : _NEC DVD_RW ND-4550A Adapter: 1 ID: 0
Read mode : Secure
Utilize accurate stream : Yes
Defeat audio cache : Yes
Make use of C2 pointers : No
Read offset correction : 48
Overread into Lead-In and Lead-Out : No
Fill up missing offset samples with silence : Yes
Delete leading and trailing silent blocks : No
Null samples used in CRC calculations : Yes
Used interface : Installed external ASPI interface
Used output format : Internal WAV Routines
Sample format : 44.100 Hz; 16 Bit; Stereo
TOC of the extracted CD
Track | Start | Length | Start sector | End sector
---------------------------------------------------------
1 | 0:00.00 | 4:33.00 | 0 | 20474
2 | 4:33.00 | 7:07.00 | 20475 | 52499
3 | 11:40.00 | 6:26.37 | 52500 | 81486
4 | 18:06.37 | 2:03.38 | 81487 | 90749
5 | 20:10.00 | 2:08.00 | 90750 | 100349
6 | 22:18.00 | 2:14.00 | 100350 | 110399
7 | 24:32.00 | 3:31.00 | 110400 | 126224
8 | 28:03.00 | 3:32.37 | 126225 | 142161
9 | 31:35.37 | 8:28.38 | 142162 | 180299
10 | 40:04.00 | 2:44.00 | 180300 | 192599
11 | 42:48.00 | 4:15.00 | 192600 | 211724
12 | 47:03.00 | 4:24.50 | 211725 | 231574
13 | 51:27.50 | 3:47.25 | 231575 | 248624
14 | 55:15.00 | 2:55.20 | 248625 | 261769
Range status and errors
Selected range
Filename C:\Dokumente und Einstellungen\Besitzer\Eigene Dateien\Placido Domingo - Gala der drei Tenöre.wav
Peak level 100.0 %
Range quality 99.9 %
Copy CRC 0FA5E5E6
Copy OK
No errors occurred
AccurateRip summary
Track 1 accurately ripped (confidence 1) [3ED45E0D]
Track 2 accurately ripped (confidence 1) [242FCB05]
Track 3 accurately ripped (confidence 1) [1160DF33]
Track 4 accurately ripped (confidence 1) [66F33090]
Track 5 accurately ripped (confidence 1) [AEBB1DAF]
Track 6 accurately ripped (confidence 1) [8A651D7C]
Track 7 accurately ripped (confidence 1) [E1E5CFF7]
Track 8 accurately ripped (confidence 1) [1EAE3AB4]
Track 9 accurately ripped (confidence 1) [28850F24]
Track 10 accurately ripped (confidence 1) [0EDA2C7C]
Track 11 accurately ripped (confidence 1) [339A663F]
Track 12 accurately ripped (confidence 1) [5FC836D9]
Track 13 accurately ripped (confidence 1) [18B9DCC6]
Track 14 accurately ripped (confidence 1) [80AE1B53]
All tracks accurately ripped
End of status report
CD 3
Exact Audio Copy V0.99 prebeta 5 from 4. May 2009
EAC extraction logfile from 3. November 2009, 21:30
Luciano Pavarotti / Gala der drei Tenöre
Used drive : _NEC DVD_RW ND-4550A Adapter: 1 ID: 0
Read mode : Secure
Utilize accurate stream : Yes
Defeat audio cache : Yes
Make use of C2 pointers : No
Read offset correction : 48
Overread into Lead-In and Lead-Out : No
Fill up missing offset samples with silence : Yes
Delete leading and trailing silent blocks : No
Null samples used in CRC calculations : Yes
Used interface : Installed external ASPI interface
Used output format : Internal WAV Routines
Sample format : 44.100 Hz; 16 Bit; Stereo
TOC of the extracted CD
Track | Start | Length | Start sector | End sector
---------------------------------------------------------
1 | 0:00.00 | 5:06.52 | 0 | 23001
2 | 5:06.52 | 4:15.23 | 23002 | 42149
3 | 9:22.00 | 3:55.00 | 42150 | 59774
4 | 13:17.00 | 4:42.37 | 59775 | 80961
5 | 17:59.37 | 3:38.38 | 80962 | 97349
6 | 21:38.00 | 7:06.00 | 97350 | 129299
7 | 28:44.00 | 2:12.50 | 129300 | 139249
8 | 30:56.50 | 4:11.25 | 139250 | 158099
9 | 35:08.00 | 1:53.00 | 158100 | 166574
10 | 37:01.00 | 3:01.00 | 166575 | 180149
11 | 40:02.00 | 2:59.00 | 180150 | 193574
12 | 43:01.00 | 3:00.20 | 193575 | 207094
13 | 46:01.20 | 2:57.55 | 207095 | 220424
14 | 48:59.00 | 3:27.00 | 220425 | 235949
15 | 52:26.00 | 4:17.37 | 235950 | 255261
Range status and errors
Selected range
Filename C:\Dokumente und Einstellungen\Besitzer\Eigene Dateien\Luciano Pavarotti - Gala der drei Tenöre.wav
Peak level 100.0 %
Range quality 100.0 %
Copy CRC 5E5017E5
Copy OK
No errors occurred
AccurateRip summary
Track 1 accurately ripped (confidence 1) [AB9E5933]
Track 2 accurately ripped (confidence 1) [EEF01831]
Track 3 accurately ripped (confidence 1) [9EE665C2]
Track 4 accurately ripped (confidence 1) [E71CACAC]
Track 5 accurately ripped (confidence 1) [CAF5A957]
Track 6 accurately ripped (confidence 1) [308388F9]
Track 7 accurately ripped (confidence 1) [39657AC8]
Track 8 accurately ripped (confidence 1) [461A854C]
Track 9 accurately ripped (confidence 1) [50D6F6F3]
Track 10 accurately ripped (confidence 1) [93B6F682]
Track 11 accurately ripped (confidence 1) [577FFD15]
Track 12 accurately ripped (confidence 1) [4923AD9D]
Track 13 accurately ripped (confidence 1) [2B77F557]
Track 14 accurately ripped (confidence 1) [951D7A27]
Track 15 accurately ripped (confidence 1) [1A3EBA7D]
All tracks accurately ripped
End of status report


Скачать торрент 712.63 МБ


Download
Для скачивания .torrent файлов необходима регистрация
Сайт не распространяет и не хранит электронные версии произведений, а лишь предоставляет доступ к создаваемому пользователями каталогу ссылок на торрент-файлы, которые содержат только списки хеш-сумм

Страница 1 из 1

Ответить на тему

   Похожие торренты   Торрент 




cron