Регистрация ·  Логин: Пароль: Запомнить   · Забыли пароль?




Ответить на тему
Статистика раздачи
Размер: 289.72 МБ | Зарегистрирован: 10 мар 2018, 13:20 | .torrent скачан: 0 раз(а)
Сидеров: [ 0  | 0 байт/сек ]   Личеров: [ 0  | 0 байт/сек ]   DHT: [ 0 / 0 ]
Автор Сообщение

Модератор
Аватара пользователя

Стаж: 6 лет
Сообщения: 7870
Молдова

Сообщение 10 мар 2018, 13:20 

[Цитировать]

Handel - Cantatas & Sonatas - Derek Lee Ragin & Ensemble Divitia Cologne

Жанр: Baroque/Cantatas
Год выпуска диска: 1990
Производитель диска: USA (Channel Classics)
Аудио кодек: APE
Тип рипа: image+.cue
Битрейт аудио: lossless
Продолжительность: 61’09
Доп. информация:
Исполнители:
Derek Lee Ragin – countertenor
Ensemble Divitia Cologne:
Alison Gangler – baroque oboe
Susanne Hartig – baroque cello
Leslie Samuels – harpsichord
1. «Lungi da me pensier tiranno» – cantata for alto and basso continuo (9’28)
2. Sonata in F major for oboe and basso continuo (7’45)
3. «Siete rose ruggiadose» - cantata for alto and basso continuo (9’29)
4. «Udite il mio consiglio» - cantata for alto and basso continuo (14’41)
5. Sonata in c minor for oboe and basso continuo (6’18)
6. «Carco sempre di Gloria» - cantata for alto and basso continuo (13’00)
Код:
Exact Audio Copy V0.99 prebeta 3 from 28. July 2007
Отчёт EAC об извлечении, выполненном 9. апреля 2009, 21:45
Derek Lee Ragin / Handel - Cantatas - Sonatas
Дисковод: Optiarc DVD RW AD-7173A   Adapter: 0  ID: 1
Режим чтения                 : Достоверность
Использование точного потока : Да
Отключение кэша аудио        : Да
Использование указателей C2  : Нет
Коррекция смещения при чтении                     : 48
Способность читать области Lead-in и Lead-out     : Нет
Заполнение пропущенных сэмплов тишиной            : Да
Удаление блоков с тишиной в начале и конце        : Нет
При вычислениях CRC использовались нулевые сэмплы : Да
Интерфейс                                         : Встроенный Win32-интерфейс для Win NT/2000
Выходной формат : Внутренние WAV-операции
Формат сэмплов  : 44.100 Гц; 16 бит; стерео
TOC извлечённого CD
     Трек |   Старт  | Длительность | Начальный сектор | Конечный сектор
    ---------------------------------------------------------------------
       1  |  0:00.00 |    9:33.50   |           0      |      43024
       2  |  9:33.50 |    7:51.55   |       43025      |      78404
       3  | 17:25.30 |    9:33.13   |       78405      |     121392
       4  | 26:58.43 |   14:47.12   |      121393      |     187929
       5  | 41:45.55 |    6:23.40   |      187930      |     216694
       6  | 48:09.20 |   12:59.58   |      216695      |     275177
Характеристики диапазона извлечения и сообщения об ошибках
Выбранный диапазон
     Имя файла D:\Handel - Cantatas & Sonatas - Lee Ragin - Divitia Cologne\Handel - Cantatas - Sonatas.wav
     Пиковый уровень 99.6 %
     Качество диапазона 100.0 %
     CRC копии 8F400CC7
     Копирование... OK
Ошибок не произошло
Конец отчёта


Скачать торрент 289.72 МБ


Download
Для скачивания .torrent файлов необходима регистрация
Сайт не распространяет и не хранит электронные версии произведений, а лишь предоставляет доступ к создаваемому пользователями каталогу ссылок на торрент-файлы, которые содержат только списки хеш-сумм

Страница 1 из 1

Ответить на тему

   Похожие торренты   Торрент 




cron