Регистрация ·  Логин: Пароль: Запомнить   · Забыли пароль?




Ответить на тему
Статистика раздачи
Размер: 326.62 МБ | Зарегистрирован: 10 мар 2018, 13:20 | .torrent скачан: 0 раз(а)
Сидеров: [ 1  | 0 байт/сек ]   Личеров: [ 0  | 0 байт/сек ]   DHT: [ 1 / 0 ]
Автор Сообщение

Модератор
Аватара пользователя

Стаж: 6 лет
Сообщения: 7870
Молдова

Сообщение 10 мар 2018, 13:20 

[Цитировать]

Павел Лисициан. Арии. Романсы. Песни

Страна: Россия
Жанр: Вокал
Год выпуска: 2001
Формат: APE (image + .cue)
Продолжительность: 1:17:56
Трэклист:
1. Н. Римский-Корсаков. Песня Веденецкого гостя («Садко»), Орк. ГАБТ, дир. Н. Голованов. 4.33.
2. П. Чайковский. Ария Елецкого («Пиковая дама»), 3.51.
3. П. Чайковский. Ария Мазепы («Мазепа»). Орк. ГАБТ, дир. А. Мелик-Пашаев. 5.20.
4. Н. Римский-Корсаков. Сцена из оперы и ария Королевича («Кащей Бессмертный»). Орк. ВРК, дир. С. Самосуд. 2.59.
5. А. Рубинштейн. Эпиталама Виндекса («Нерон»). Орк. ГАБТ, дир. А. Мелик-Пашаев. 3.20.
6. С. Рахманинов, сл. А. Апухтина. Отрывок из Мюссе. Ф-но - А. Ерохин. 1.53.
7. С. Рахманинов, сл. Н. Минского. Она, как полдень, хороша... Ф-но - М. Пазовский. 2.36.
8. С. Рахманинов, сл. Д. Ратгауза. Проходит все. Ф-но - М. Сахаров. 1.58.
9. С. Рахманинов, cл. А. Фета. О, долго буду я, в молчанье ночи тайной... Ф-но - Н. Вальтер. 2.44.
10. Н. Римский-Корсаков, cл. А. Пушкина. На холмах Грузии лежит ночная мгла... Ф-но - М. Сахаров. 2.14.
11. Э. Григ, сл. И.-В. Гёте. Розы. Ф-но - А. Зыбцов. 2.49.
12. Ш. Гуно. Каватина Валентина («Фауст»). Орк. ГАБТ, дир. В. Небольсин. 4.17.
13. Д. Верди. Дуэт Аиды и Амонасро («Аида»), Аида - Н. Соколова. Орк. ГАБТ, дир. А. Мелик-Пашаев. 7.39.
14. Р. Леонкавалло. Романс Каскара («Заза»). Орк. ВРК, дир. В. Пирадов. 2.18.
15. Р. Леонкавалло. Пролог («Паяцы»). Орк. ГАБТ, дир. А. Мелик-Пашаев. 5.28.
16. Д. Верди. Ария Жермона («Травиата»). Гос. симф. орк. СССР, дир. А. Орлов. 4.39.
17. «Степь да степь кругом», рус. нар. песня. Орк. им. Осипова, дир. В. Гнутов. 5.42.
18. «Ласточка», арм. нар. песня в обр. А. Долуханяна. Орк. рус. нар. инстр. Радио, дир. В. Федосеев. 2.23.
19. «Журавль», арм. нар. песня в обр. А. Долуханяна, ф-но - М. Сахаров. 5.14.
20. «Полюбил я розу», арм. нар. песня в обр. А. Долуханяна. Орк. рус. нар. инстр. Радио, дир. В. Федосеев. 2.37.
21. «К возлюбленной», арм. нар. песня в обр. С. Бархударяна. Орк. рус. нар. инстр. Радио, дир. В. Федосеев. 3.13.
Доп. информация:
Записи из собрания семьи Лисициан
Диск выходил как приложение к книге Сергея Яковенко о Павле Лисициане "Павел Герасимович Лисициан в искусстве и жизни" в год 90 летия артиста.
Exact Audio Copy V0.99 prebeta 4 from 23. January 2008
EAC extraction logfile from 13. March 2008, 17:33
Pavel Lisitsian / The Art of Pavel Lisitsian
Used drive : PHILIPS DVD+-RW SDVD8820 Adapter: 1 ID: 0
Read mode : Secure
Utilize accurate stream : Yes
Defeat audio cache : Yes
Make use of C2 pointers : Yes
Read offset correction : 6
Overread into Lead-In and Lead-Out : Yes
Fill up missing offset samples with silence : Yes
Delete leading and trailing silent blocks : No
Null samples used in CRC calculations : No
Used interface : Native Win32 interface for Win NT & 2000
Used output format : Monkey's Audio Lossless Encoder v3.99 DLL
Sample format : High Lossless Compression
TOC of the extracted CD
Track | Start | Length | Start sector | End sector
---------------------------------------------------------
1 | 0:00.00 | 4:33.70 | 0 | 20544
2 | 4:33.70 | 3:57.67 | 20545 | 38386
3 | 8:31.62 | 5:20.40 | 38387 | 62426
4 | 13:52.27 | 2:58.57 | 62427 | 75833
5 | 16:51.09 | 3:20.29 | 75834 | 90862
6 | 20:11.38 | 1:52.14 | 90863 | 99276
7 | 22:03.52 | 2:36.39 | 99277 | 111015
8 | 24:40.16 | 1:58.03 | 111016 | 119868
9 | 26:38.19 | 2:43.25 | 119869 | 132118
10 | 29:21.44 | 2:14.68 | 132119 | 142236
11 | 31:36.37 | 2:48.48 | 142237 | 154884
12 | 34:25.10 | 4:18.35 | 154885 | 174269
13 | 38:43.45 | 7:38.39 | 174270 | 208658
14 | 46:22.09 | 2:18.14 | 208659 | 219022
15 | 48:40.23 | 5:27.41 | 219023 | 243588
16 | 54:07.64 | 4:39.42 | 243589 | 264555
17 | 58:47.31 | 5:41.63 | 264556 | 290193
18 | 64:29.19 | 2:23.05 | 290194 | 300923
19 | 66:52.24 | 5:13.71 | 300924 | 324469
20 | 72:06.20 | 2:37.06 | 324470 | 336250
21 | 74:43.26 | 3:12.55 | 336251 | 350705
Range status and errors
Selected range
Filename C:\Lisitsian\Pavel Lisitsian - The Art of Pavel Lisitsian.ape
Suspicious position 1:17:55
Peak level 100.0 %
Range quality 99.9 %
Copy CRC 5D789415
Copy finished
There were errors
End of status report


Скачать торрент 326.62 МБ


Download
Для скачивания .torrent файлов необходима регистрация
Сайт не распространяет и не хранит электронные версии произведений, а лишь предоставляет доступ к создаваемому пользователями каталогу ссылок на торрент-файлы, которые содержат только списки хеш-сумм

Страница 1 из 1

Ответить на тему

   Похожие торренты   Торрент 




cron