Регистрация ·  Логин: Пароль: Запомнить   · Забыли пароль?




Ответить на тему
Статистика раздачи
Размер: 191.57 МБ | Зарегистрирован: 10 мар 2018, 13:20 | .torrent скачан: 0 раз(а)
Сидеров: [ 2  | 0 байт/сек ]   Личеров: [ 1  | 0 байт/сек ]   DHT: [ 2 / 1 ]
Автор Сообщение

Модератор
Аватара пользователя

Стаж: 6 лет
Сообщения: 7870
Молдова

Сообщение 10 мар 2018, 13:20 

[Цитировать]

Edith Canat de Chizy - Tombeau de Gilles de Rais

Жанр: Oratorio, Contemporary, Classical
Страна-производитель диска: France
Год издания диска: 1995
Издатель (лейбл): VERANY
Аудиокодек: FLAC
Тип рипа: image+.cue
Битрейт аудио: lossless
Продолжительность: 50:06
Источник: собственный рип

Треклист:
Tombeau de Gilles de Rais, oratorio in 3 acts
1 - Ouverture
2 - Prologue
3 - Act 1 (scenes I-VI)
4 - Act 2 (scenes VII-XIII)
5 - Act 3 (scenes XIV-XVII)

Исполнители:
Lionel Peintre (baryton)
Feodor Atkine et Jean Boissery (récitants)
Camillo Angarita (l'enfant)
Brigitte Peyre (soprano)
Mireille Quercia (alto)
Patrice Balter (basse)
Richard Taylor (basse)
Maîtrise de Paris
Ensemble Musicatreize
Philharmonie de Lorraine
Roland Hayrabedian (direction)

Код:
Exact Audio Copy V1.0 beta 2 from 29. April 2011
Отчёт EAC об извлечении, выполненном 2. октября 2011, 22:16
Edith Canat de Chizy / Tombeau de Gilles de Rais
Дисковод: TSSTcorpCDDVDW SH-S202H   Adapter: 3  ID: 0
Режим чтения                 : Достоверность
Использование точного потока : Да
Отключение кэша аудио        : Да
Использование указателей C2  : Нет
Коррекция смещения при чтении                     : 6
Способность читать области Lead-in и Lead-out     : Нет
Заполнение пропущенных сэмплов тишиной            : Да
Удаление блоков с тишиной в начале и конце        : Нет
При вычислениях CRC использовались нулевые сэмплы : Да
Интерфейс                                         : Встроенный Win32-интерфейс для Win NT/2000
Выходной формат : Внутренние WAV-операции
Формат сэмплов  : 44.100 Гц; 16 бит; стерео
TOC извлечённого CD
     Трек |   Старт  | Длительность | Начальный сектор | Конечный сектор
    ---------------------------------------------------------------------
       1  |  0:00.00 |    4:24.07   |           0      |      19806
       2  |  4:24.07 |    1:54.10   |       19807      |      28366
       3  |  6:18.17 |   12:21.55   |       28367      |      83996
       4  | 18:39.72 |   17:56.00   |       83997      |     164696
       5  | 36:35.72 |   13:38.33   |      164697      |     226079
Характеристики диапазона извлечения и сообщения об ошибках
Выбранный диапазон
     Имя файла D:\Edith Canat de Chizy - Tombeau de Gilles de Rais.wav
     Пиковый уровень 100.0 %
     Скорость извлечения 3.9 X
     Качество диапазона 100.0 %
     CRC теста EDABB5D8
     CRC копии EDABB5D8
     Копирование... OK
Ошибок не произошло
Конец отчёта


Скачать торрент 191.57 МБ


Download
Для скачивания .torrent файлов необходима регистрация
Сайт не распространяет и не хранит электронные версии произведений, а лишь предоставляет доступ к создаваемому пользователями каталогу ссылок на торрент-файлы, которые содержат только списки хеш-сумм

Страница 1 из 1

Ответить на тему

   Похожие торренты   Торрент 




cron