Регистрация ·  Логин: Пароль: Запомнить   · Забыли пароль?




Ответить на тему
Статистика раздачи
Размер: 693.66 МБ | Зарегистрирован: 10 мар 2018, 13:20 | .torrent скачан: 0 раз(а)
Сидеров: [ 0  | 0 байт/сек ]   Личеров: [ 0  | 0 байт/сек ]   DHT: [ 0 / 0 ]
Автор Сообщение

Модератор
Аватара пользователя

Стаж: 6 лет
Сообщения: 7870
Молдова

Сообщение 10 мар 2018, 13:20 

[Цитировать]

Beethoven - Lieder und Gesange - Ainsley, Murray, Williams, Burnside (3 cd)

Жанр: Lied
Страна-производитель диска: Great Britain
Год издания диска: 2008
Издатель (лейбл): Signum
Номер по каталогу: SGCD 139-145
Дата записи: 2008
Аудиокодек: FLAC
Тип рипа: image+.cue
Битрейт аудио: lossless
Продолжительность: 3:00:44
Источник: собственный рип
Наличие сканов в содержимом раздачи: нет
Треклист:
CD 1
01. Resignation WoO 149
02. Abendlied WoO 150
03. Andenken WoO 136
04. La Tiranna WoO 125
05. An die Hoffnung op. 32
06. Ruf vom Berge WoO 147
07. Klage WoO 113
08. Selbstsgespraech WoO 114
09. Adelaide op. 46
10. Wonne der Wehmut op.83_1
11. Sehnsucht op. 83_2
12. Mit einem gemahlten Band op. 83_3
13. Gesang aus der Ferne WoO 137
14. Die laute Klage WoO 135
15. Lebensgluck op. 88
16. Der Wachteschlag WoO 129
17. An die Hoffnung op. 94
18. And die ferne Geliebte op. 98
CD2
01. Neue Liebe op. 75_1
02. An den fernen Geliebten op. 75_2
03. Der Zurfiedene op. 75_3
04. Gretels Warnung op. 75_4
05. Aus Goethes Faust op. 75_5
06. Mignon op. 75_6
07. Bitten op. 48_1
08. Gottes Macht op. 48_2
09. Die Liebe des Naechsten op. 48_3
10. Vom Tode op. 48_4
11. Die Ehre Gottes aus der Natur op. 48_5
12. Busslied op. 48_6
13. Hoffnung op. 82_1
14. Liebes-Klage op. 82_2
15. L'amante impaziente op. 82_3
16. L'amante impaziente op. 82_4
17. Lebens-Genuss op. 82_5
CD3
01. An die Geliebte WoO 140_1
02. Sehnsucht WoO 134_1
03. An die Geliebte WoO 140_2
04. Sehnsucht WoO 134_2
05. Das Geheimnis WoO 145
06. Sehnsucht WoO 134_3
07. Als die Geliebte sich trennen wollte WoO 132
08. Sehnsucht WoO 134_4
09. Der Kuss op. 128
10. Sehnsucht WoO 146
11. Der Mann von Wort op. 99
12. Seufzer eines Ungeliebten WoO 118
13. In questa tomba iscura WoO 133
14. Feuerfarb' op. 52_1
15. Das Liedchen von der Ruhe op. 52_2
16. Mailied op. 52_3
17. Mollys Abschied op. 52_4
18. Die Liebe op. 52_5
19. La Marmotte op. 52_6
20. Das Blumchen Wunderhold op. 52_7
21. Urians Reise um die Welt op. 52_8
Исполнители:
A. Murray, MS; J. M. Ainsley, T; R. Williams, B; I. Burnside, pf.
Код:
Exact Audio Copy V1.0 beta 3 from 29. August 2011
EAC extraction logfile from 12. November 2011, 10:44
Beethoven / Lieder und Gesange 1
Used drive  : TSSTcorpCDDVDW TS-L633L   Adapter: 1  ID: 1
Read mode               : Secure
Utilize accurate stream : Yes
Defeat audio cache      : Yes
Make use of C2 pointers : No
Read offset correction                      : 6
Overread into Lead-In and Lead-Out          : No
Fill up missing offset samples with silence : Yes
Delete leading and trailing silent blocks   : No
Null samples used in CRC calculations       : Yes
Used interface                              : Native Win32 interface for Win NT & 2000
Used output format              : User Defined Encoder
Selected bitrate                : 128 kBit/s
Quality                         : High
Add ID3 tag                     : No
Command line compressor         : C:\Programmi\Exact Audio Copy\Flac\flac.exe
Additional command line options : -V -8 %source%
TOC of the extracted CD
     Track |   Start  |  Length  | Start sector | End sector
    ---------------------------------------------------------
        1  |  0:00.00 |  3:33.23 |         0    |    15997
        2  |  3:33.23 |  5:26.72 |     15998    |    40519
        3  |  9:00.20 |  3:02.56 |     40520    |    54225
        4  | 12:03.01 |  3:01.24 |     54226    |    67824
        5  | 15:04.25 |  4:59.52 |     67825    |    90301
        6  | 20:04.02 |  2:04.42 |     90302    |    99643
        7  | 22:08.44 |  2:56.73 |     99644    |   112916
        8  | 25:05.42 |  3:50.12 |    112917    |   130178
        9  | 28:55.54 |  6:02.71 |    130179    |   157399
       10  | 34:58.50 |  2:25.33 |    157400    |   168307
       11  | 37:24.08 |  2:20.51 |    168308    |   178858
       12  | 39:44.59 |  1:53.54 |    178859    |   187387
       13  | 41:38.38 |  4:36.18 |    187388    |   208105
       14  | 46:14.56 |  3:14.38 |    208106    |   222693
       15  | 49:29.19 |  2:21.56 |    222694    |   233324
       16  | 51:51.00 |  4:07.58 |    233325    |   251907
       17  | 55:58.58 |  7:24.10 |    251908    |   285217
       18  | 63:22.68 | 14:18.46 |    285218    |   349613
Range status and errors
Selected range
     Filename D:\TEMP\Beethoven - Lieder und Gesange 1.wav
     Peak level 98.4 %
     Extraction speed 4.2 X
     Range quality 100.0 %
     Copy CRC 66519B02
     Copy OK
No errors occurred
AccurateRip summary
Track  1  not present in database
Track  2  not present in database
Track  3  not present in database
Track  4  not present in database
Track  5  not present in database
Track  6  not present in database
Track  7  not present in database
Track  8  not present in database
Track  9  not present in database
Track 10  not present in database
Track 11  not present in database
Track 12  not present in database
Track 13  not present in database
Track 14  not present in database
Track 15  not present in database
Track 16  not present in database
Track 17  not present in database
Track 18  not present in database
None of the tracks are present in the AccurateRip database
End of status report
Код:
Exact Audio Copy V1.0 beta 3 from 29. August 2011
EAC extraction logfile from 12. November 2011, 11:22
Beethoven / Lieder und Gesange 2
Used drive  : TSSTcorpCDDVDW TS-L633L   Adapter: 1  ID: 1
Read mode               : Secure
Utilize accurate stream : Yes
Defeat audio cache      : Yes
Make use of C2 pointers : No
Read offset correction                      : 6
Overread into Lead-In and Lead-Out          : No
Fill up missing offset samples with silence : Yes
Delete leading and trailing silent blocks   : No
Null samples used in CRC calculations       : Yes
Used interface                              : Native Win32 interface for Win NT & 2000
Used output format              : User Defined Encoder
Selected bitrate                : 128 kBit/s
Quality                         : High
Add ID3 tag                     : No
Command line compressor         : C:\Programmi\Exact Audio Copy\Flac\flac.exe
Additional command line options : -V -8 %source%
TOC of the extracted CD
     Track |   Start  |  Length  | Start sector | End sector
    ---------------------------------------------------------
        1  |  0:00.00 |  3:15.25 |         0    |    14649
        2  |  3:15.25 |  3:25.14 |     14650    |    30038
        3  |  6:40.39 |  1:24.09 |     30039    |    36347
        4  |  8:04.48 |  2:05.34 |     36348    |    45756
        5  | 10:10.07 |  2:07.33 |     45757    |    55314
        6  | 12:17.40 |  4:07.30 |     55315    |    73869
        7  | 16:24.70 |  2:35.20 |     73870    |    85514
        8  | 19:00.15 |  1:18.15 |     85515    |    91379
        9  | 20:18.30 |  1:32.29 |     91380    |    98308
       10  | 21:50.59 |  2:48.60 |     98309    |   110968
       11  | 24:39.44 |  1:49.15 |    110969    |   119158
       12  | 26:28.59 |  4:21.40 |    119159    |   138773
       13  | 30:50.24 |  2:12.65 |    138774    |   148738
       14  | 33:03.14 |  3:11.57 |    148739    |   163120
       15  | 36:14.71 |  1:36.32 |    163121    |   170352
       16  | 37:51.28 |  2:42.34 |    170353    |   182536
       17  | 40:33.62 |  2:58.15 |    182537    |   195901
Range status and errors
Selected range
     Filename D:\TEMP\Beethoven - Lieder und Gesange 2.wav
     Peak level 93.7 %
     Extraction speed 3.4 X
     Range quality 100.0 %
     Copy CRC 0D710A97
     Copy OK
No errors occurred
AccurateRip summary
Track  1  not present in database
Track  2  not present in database
Track  3  not present in database
Track  4  not present in database
Track  5  not present in database
Track  6  not present in database
Track  7  not present in database
Track  8  not present in database
Track  9  not present in database
Track 10  not present in database
Track 11  not present in database
Track 12  not present in database
Track 13  not present in database
Track 14  not present in database
Track 15  not present in database
Track 16  not present in database
Track 17  not present in database
None of the tracks are present in the AccurateRip database
End of status report
Код:
Exact Audio Copy V1.0 beta 3 from 29. August 2011
Отчёт EAC об извлечении, выполненном 12. ноября 2011, 16:43
Beethoven / Lieder und Gesange 3
Дисковод: HL-DT-STRW/DVD GCC-T10N   Adapter: 1  ID: 0
Режим чтения                 : Достоверность
Использование точного потока : Да
Отключение кэша аудио        : Да
Использование указателей C2  : Нет
Коррекция смещения при чтении                     : 102
Способность читать области Lead-in и Lead-out     : Нет
Заполнение пропущенных сэмплов тишиной            : Да
Удаление блоков с тишиной в начале и конце        : Нет
При вычислениях CRC использовались нулевые сэмплы : Да
Интерфейс                                         : Встроенный Win32-интерфейс для Win NT/2000
Выходной формат          : Пользовательский кодировщик
Выбранный битрейт        : 128 kBit/s
Качество                 : Высокий
Добавление ID3-тега      : Нет
Утилита сжатия           : C:\Program Files\Exact Audio Copy\Flac\flac.exe
Дополнительные параметры : -V -8 %source%
TOC извлечённого CD
     Трек |   Старт  | Длительность | Начальный сектор | Конечный сектор
    ---------------------------------------------------------------------
       1  |  0:00.00 |    1:24.29   |           0      |       6328
       2  |  1:24.29 |    1:37.38   |        6329      |      13641
       3  |  3:01.67 |    1:39.61   |       13642      |      21127
       4  |  4:41.53 |    1:19.48   |       21128      |      27100
       5  |  6:01.26 |    1:53.10   |       27101      |      35585
       6  |  7:54.36 |    1:28.35   |       35586      |      42220
       7  |  9:22.71 |    3:28.68   |       42221      |      57888
       8  | 12:51.64 |    1:59.62   |       57889      |      66875
       9  | 14:51.51 |    2:08.40   |       66876      |      76515
      10  | 17:00.16 |    3:07.21   |       76516      |      90561
      11  | 20:07.37 |    2:07.58   |       90562      |     100144
      12  | 22:15.20 |    6:16.36   |      100145      |     128380
      13  | 28:31.56 |    3:13.13   |      128381      |     142868
      14  | 31:44.69 |    3:07.66   |      142869      |     156959
      15  | 34:52.60 |    6:38.69   |      156960      |     186878
      16  | 41:31.54 |    2:07.11   |      186879      |     196414
      17  | 43:38.65 |    3:59.71   |      196415      |     214410
      18  | 47:38.61 |    1:29.69   |      214411      |     221154
      19  | 49:08.55 |    1:59.53   |      221155      |     230132
      20  | 51:08.33 |    2:11.09   |      230133      |     239966
      21  | 53:19.42 |    6:11.52   |      239967      |     267843
Характеристики диапазона извлечения и сообщения об ошибках
Выбранный диапазон
     Имя файла C:\Documents and Settings\Мария\Рабочий стол\TEMP\Beethoven - Lieder und Gesange 3.wav
     Пиковый уровень 97.1 %
     Скорость извлечения 4.2 X
     Качество диапазона 99.9 %
     CRC копии F78235C8
     Копирование... OK
Ошибок не произошло
AccurateRip: сводка
Трек  1  отсутствует в базе данных
Трек  2  отсутствует в базе данных
Трек  3  отсутствует в базе данных
Трек  4  отсутствует в базе данных
Трек  5  отсутствует в базе данных
Трек  6  отсутствует в базе данных
Трек  7  отсутствует в базе данных
Трек  8  отсутствует в базе данных
Трек  9  отсутствует в базе данных
Трек 10  отсутствует в базе данных
Трек 11  отсутствует в базе данных
Трек 12  отсутствует в базе данных
Трек 13  отсутствует в базе данных
Трек 14  отсутствует в базе данных
Трек 15  отсутствует в базе данных
Трек 16  отсутствует в базе данных
Трек 17  отсутствует в базе данных
Трек 18  отсутствует в базе данных
Трек 19  отсутствует в базе данных
Трек 20  отсутствует в базе данных
Трек 21  отсутствует в базе данных
Ни одного трека нет в базе AccurateRip
Конец отчёта


Скачать торрент 693.66 МБ


Download
Для скачивания .torrent файлов необходима регистрация
Сайт не распространяет и не хранит электронные версии произведений, а лишь предоставляет доступ к создаваемому пользователями каталогу ссылок на торрент-файлы, которые содержат только списки хеш-сумм

Страница 1 из 1

Ответить на тему

   Похожие торренты   Торрент 




cron