Регистрация ·  Логин: Пароль: Запомнить   · Забыли пароль?




Ответить на тему
Статистика раздачи
Размер: 263.19 МБ | Зарегистрирован: 10 мар 2018, 13:21 | .torrent скачан: 0 раз(а)
Сидеров: [ 0  | 0 байт/сек ]   Личеров: [ 0  | 0 байт/сек ]   DHT: [ 0 / 0 ]
Автор Сообщение

Модератор
Аватара пользователя

Стаж: 6 лет
Сообщения: 7870
Молдова

Сообщение 10 мар 2018, 13:21 

[Цитировать]

Giovanni Battista Bononcini - Amore doppio: Serenata a tre - Suzie Le Blanc

Жанр: Baroque serenata
Год выпуска диска: 1996
Производитель диска: Label: NCA
Аудио кодек: APE
Тип рипа: image+.cue
Битрейт аудио: lossless
Продолжительность: TT: 59:09
Собственный рип господина zamorna
Трэклист:
01 Preludio
02 Largo
03 I. Menuett II. Menuett
04 Recitativo: Amo Filli, Amo Dori
05 Aria: Son Due L'arciere
06 Recitativo: Presso Al Limpido Rio
07 Aria: Ti Veggio In Seno
08 Recitativo: Una Dell'altra Fiamma
09 Aria: Se Amar Mi Vuoi
10 Recitativo: Ninfa Gentil
11 Aria: Cosi Per Dori
12 Recitativo: La Tua Face
13 Aria: Doppio Strale Fatale D'amore
14 Recitativo: Dori, Io T'amo
15 Aria: Ogn'or Che Penso
16 Recitativo: Paga Tu Non Mi Rendi
17 Aria: Ah! Crudel
18 Recitativo: Amintu, Tu Deridi
19 Aria: Sento Che Dice Il Cor
20 Recitativo: Se Possibil Non E
21 Aria: Di Vagheggiarvi Solo
22 Aria: Sanno Ben Le Tue Pupille
23 Dance De Nimphes
24 Recitativo: Leggiadra Pastorella
25 Aria: Meglio E Morir Cosi
26 Recitativo: Innanzi Agl'occhi Tuoi
27 Aria: Chieggio Vita
28 Recitativo: Contentatevi O Belle
29 Aria: Infelice Mia Costanza
30 Aria: Tu Pensi D'allettarmi
31 Recitativo: Aminta, Omai Ti Prendi
32 Aria: Mi Basta
33 Recitativo: Vanne Pur
34 Aria: Quel Augel
Доп. информация:
Giovanni Battista Bononcini
Amore doppio: Serenata a tre
Suzie Le Blanc (Filli)
Ursula Fiedler (Dori)
Axel Köhler (Aminta)
Lautten Compagney
Wolfgang Katschner , conductor
Recorded: 29 Feb.-2 Mar. 1996 Andreaskirche Berlin Wannsee
Scans (Libretto Italian/German)
EAC:
Exact Audio Copy V0.99 prebeta 5 from 4. May 2009
EAC extraction logfile from 13. November 2009, 22:32
Bononcini, Giavanni Battista / Amore Doppio - Katschner
Used drive : HL-DT-STDVDRAM GSA-T50N Adapter: 0 ID: 1
Read mode : Secure
Utilize accurate stream : Yes
Defeat audio cache : Yes
Make use of C2 pointers : No
Read offset correction : 667
Overread into Lead-In and Lead-Out : No
Fill up missing offset samples with silence : Yes
Delete leading and trailing silent blocks : No
Null samples used in CRC calculations : Yes
Used interface : Native Win32 interface for Win NT & 2000
Used output format : User Defined Encoder
Selected bitrate : 1024 kBit/s
Quality : High
Add ID3 tag : No
Command line compressor : C:\Program Files\Exact Audio Copy\FLAC\FLAC.EXE
Additional command line options : -6 -V -T "ARTIST=%a" -T "TITLE=%t" -T "ALBUM=%g" -T "DATE=%y" -T "TRACKNUMBER=%n" -T "GENRE=%m" -T "COMMENT=%e" %s -o %d
TOC of the extracted CD
Track | Start | Length | Start sector | End sector
---------------------------------------------------------
1 | 0:00.00 | 1:42.41 | 0 | 7690
2 | 1:42.41 | 0:26.70 | 7691 | 9710
3 | 2:09.36 | 2:19.53 | 9711 | 20188
4 | 4:29.14 | 0:40.65 | 20189 | 23253
5 | 5:10.04 | 2:29.27 | 23254 | 34455
6 | 7:39.31 | 1:23.28 | 34456 | 40708
7 | 9:02.59 | 2:32.50 | 40709 | 52158
8 | 11:35.34 | 0:26.10 | 52159 | 54118
9 | 12:01.44 | 1:52.67 | 54119 | 62585
10 | 13:54.36 | 0:54.70 | 62586 | 66705
11 | 14:49.31 | 1:45.28 | 66706 | 74608
12 | 16:34.59 | 0:33.45 | 74609 | 77128
13 | 17:08.29 | 2:00.27 | 77129 | 86155
14 | 19:08.56 | 0:48.45 | 86156 | 89800
15 | 19:57.26 | 3:28.00 | 89801 | 105400
16 | 23:25.26 | 1:11.58 | 105401 | 110783
17 | 24:37.09 | 2:46.00 | 110784 | 123233
18 | 27:23.09 | 1:23.62 | 123234 | 129520
19 | 28:46.71 | 2:55.18 | 129521 | 142663
20 | 31:42.14 | 0:50.35 | 142664 | 146448
21 | 32:32.49 | 2:41.10 | 146449 | 158533
22 | 35:13.59 | 2:41.65 | 158534 | 170673
23 | 37:55.49 | 0:48.45 | 170674 | 174318
24 | 38:44.19 | 0:50.25 | 174319 | 178093
25 | 39:34.44 | 3:43.70 | 178094 | 194888
26 | 43:18.39 | 1:08.60 | 194889 | 200048
27 | 44:27.24 | 1:36.15 | 200049 | 207263
28 | 46:03.39 | 0:46.37 | 207264 | 210750
29 | 46:50.01 | 4:53.70 | 210751 | 232795
30 | 51:43.71 | 1:40.18 | 232796 | 240313
31 | 53:24.14 | 0:51.42 | 240314 | 244180
32 | 54:15.56 | 1:30.45 | 244181 | 250975
33 | 55:46.26 | 1:01.60 | 250976 | 255610
34 | 56:48.11 | 2:17.65 | 255611 | 265950
Range status and errors
Selected range
Filename C:\Bononcini, Giavanni Battista - Amore Doppio - Katschner.wav
Peak level 94.2 %
Range quality 100.0 %
Test CRC 17B1D71C
Copy CRC 17B1D71C
Copy OK
No errors occurred
AccurateRip summary
Track 1 not present in database
Track 2 not present in database
Track 3 not present in database
Track 4 not present in database
Track 5 not present in database
Track 6 not present in database
Track 7 not present in database
Track 8 not present in database
Track 9 not present in database
Track 10 not present in database
Track 11 not present in database
Track 12 not present in database
Track 13 not present in database
Track 14 not present in database
Track 15 not present in database
Track 16 not present in database
Track 17 not present in database
Track 18 not present in database
Track 19 not present in database
Track 20 not present in database
Track 21 not present in database
Track 22 not present in database
Track 23 not present in database
Track 24 not present in database
Track 25 not present in database
Track 26 not present in database
Track 27 not present in database
Track 28 not present in database
Track 29 not present in database
Track 30 not present in database
Track 31 not present in database
Track 32 not present in database
Track 33 not present in database
Track 34 not present in database
None of the tracks are present in the AccurateRip database
End of status report


Скачать торрент 263.19 МБ


Download
Для скачивания .torrent файлов необходима регистрация
Сайт не распространяет и не хранит электронные версии произведений, а лишь предоставляет доступ к создаваемому пользователями каталогу ссылок на торрент-файлы, которые содержат только списки хеш-сумм

Страница 1 из 1

Ответить на тему

   Похожие торренты   Торрент 




cron