Регистрация ·  Логин: Пароль: Запомнить   · Забыли пароль?




Ответить на тему
Статистика раздачи
Размер: 143.83 МБ | Зарегистрирован: 10 мар 2018, 13:21 | .torrent скачан: 0 раз(а)
Сидеров: [ 5  | 0 байт/сек ]   Личеров: [ 1  | 0 байт/сек ]   DHT: [ 5 / 1 ]
Автор Сообщение

Модератор
Аватара пользователя

Стаж: 6 лет
Сообщения: 7870
Молдова

Сообщение 10 мар 2018, 13:21 

[Цитировать]

magnifiCathy: the many voices of Cathy Berberian - Vocal Masterpieces by Monteverdi, Debussy, Cage, Bussotti, Weill, McCartney/Lennon, Gershwin, Berberian

Жанр: Vocal Circus Acrobatics
Страна-производитель диска: Германия
Год издания диска: 1988
Издатель (лейбл): Wergo
Номер по каталогу: WER 60054-50
Дата записи: 1970
Аудиокодек: APE
Тип рипа: image+.cue
Битрейт аудио: lossless
Продолжительность: 44:21
Источник: собственный рип
сайт-источник/ник/другое: с собственного диска
Наличие сканов в содержимом раздачи: нет
(только обложка)
Треклист:
Claudio Monteverdi
La lettera amorosa
Claude Debussy
Trois Chansons de Bilitis: 1. La flûte de Pan, 2. La chevelure, 3. Le tombeau des Naïades
John Cage
A Flower
The Wonderful Widow of Eighteen Springs
Sylvano Bussotti
"O" - Atti Vocali (from "La Passion selon Sade")
Kurt Weill
Surabaya Johnny (from "Happy End")
Paul McCartney / John Lennon
A Ticket to Ride
George Gershwin
Summertime (from "Porgy and Bess")
Cathy Berberian
Stripsody
Исполнители:
Cathy Berberian, mezzo-soprano
Bruno Canino, harpsichord (1), piano (2-10)
Код:
Exact Audio Copy V0.99 prebeta 5 from 4. May 2009
EAC extraction logfile from 20. December 2010, 13:58
Cathy Berberian / magnifiCathy: the many voices of Cathy Berberian
Used drive  : ASUS    CRW-5232AS   Adapter: 3  ID: 1
Read mode               : Secure
Utilize accurate stream : Yes
Defeat audio cache      : Yes
Make use of C2 pointers : No
Read offset correction                      : 6
Overread into Lead-In and Lead-Out          : No
Fill up missing offset samples with silence : Yes
Delete leading and trailing silent blocks   : No
Null samples used in CRC calculations       : Yes
Used interface                              : Native Win32 interface for Win NT & 2000
Used output format : Internal WAV Routines
Sample format      : 44.100 Hz; 16 Bit; Stereo
TOC of the extracted CD
     Track |   Start  |  Length  | Start sector | End sector
    ---------------------------------------------------------
        1  |  0:00.32 |  6:38.73 |        32    |    29954
        2  |  6:39.30 |  2:42.00 |     29955    |    42104
        3  |  9:21.30 |  3:11.72 |     42105    |    56501
        4  | 12:33.27 |  2:49.03 |     56502    |    69179
        5  | 15:22.30 |  3:44.72 |     69180    |    86051
        6  | 19:07.27 |  2:29.00 |     86052    |    97226
        7  | 21:36.27 |  8:59.03 |     97227    |   137654
        8  | 30:35.30 |  4:42.00 |    137655    |   158804
        9  | 35:17.30 |  2:06.02 |    158805    |   168256
       10  | 37:23.32 |  2:21.70 |    168257    |   178901
       11  | 39:45.27 |  4:33.30 |    178902    |   199406
Range status and errors
Selected range
     Filename F:\Temp\Music\magnifiCathy\CDImage.wav
     Peak level 80.6 %
     Range quality 100.0 %
     Copy CRC 6FD50D24
     Copy OK
No errors occurred
AccurateRip summary
Track  1  cannot be verified as accurate (confidence 4)  [DEB5657F], AccurateRip returned [01E645AB]
Track  2  cannot be verified as accurate (confidence 4)  [C3A9B711], AccurateRip returned [2FC76A3D]
Track  3  cannot be verified as accurate (confidence 4)  [FA93F9EF], AccurateRip returned [0DE8033F]
Track  4  cannot be verified as accurate (confidence 4)  [6A51B08C], AccurateRip returned [AA5C1C78]
Track  5  cannot be verified as accurate (confidence 4)  [6C4E6165], AccurateRip returned [E2520A09]
Track  6  cannot be verified as accurate (confidence 4)  [F7AE996B], AccurateRip returned [2E35B00F]
Track  7  cannot be verified as accurate (confidence 4)  [3AF7B0EB], AccurateRip returned [B1C049BB]
Track  8  cannot be verified as accurate (confidence 4)  [9794492C], AccurateRip returned [37A15CF4]
Track  9  cannot be verified as accurate (confidence 4)  [ACC2F553], AccurateRip returned [55DEE6DF]
Track 10  cannot be verified as accurate (confidence 4)  [2DAF3AD6], AccurateRip returned [E5956B6E]
Track 11  cannot be verified as accurate (confidence 4)  [21FD7D59], AccurateRip returned [4485A5E9]
No tracks could be verified as accurate
You may have a different pressing from the one(s) in the database
End of status report
набили криворукие рипперы всю онлайновую БД AccurateRip своими горбатыми релизами...
Код:
REM GENRE Vocal
REM DATE 1988
REM DISCID 990A620B
REM COMMENT "ExactAudioCopy v0.99pb5"
PERFORMER "Various Artists"
TITLE "magnifiCathy: the many voices of Cathy Berberian"
FILE "CDImage.ape" WAVE
  TRACK 01 AUDIO
    TITLE "Monteverdi - La lettera amorosa"
    PERFORMER "Cathy Berberian, Bruno Canino"
    INDEX 00 00:00:00
    INDEX 01 00:00:32
  TRACK 02 AUDIO
    TITLE "Debussy - Trois Chansons de Bilitis: La flûte de Pan"
    PERFORMER "Cathy Berberian, Bruno Canino"
    INDEX 00 06:35:25
    INDEX 01 06:39:30
  TRACK 03 AUDIO
    TITLE "Debussy - Trois Chansons de Bilitis: La chevelure"
    PERFORMER "Cathy Berberian, Bruno Canino"
    INDEX 00 09:17:15
    INDEX 01 09:21:30
  TRACK 04 AUDIO
    TITLE "Debussy - Trois Chansons de Bilitis: Le tombeau des Naïdes"
    PERFORMER "Cathy Berberian, Bruno Canino"
    INDEX 00 12:29:22
    INDEX 01 12:33:27
  TRACK 05 AUDIO
    TITLE "Cage - A Flower"
    PERFORMER "Cathy Berberian, Bruno Canino"
    INDEX 00 15:18:17
    INDEX 01 15:22:30
  TRACK 06 AUDIO
    TITLE "Cage - The Wonderful Widow of Eighteen Springs"
    PERFORMER "Cathy Berberian, Bruno Canino"
    INDEX 00 19:02:40
    INDEX 01 19:07:27
  TRACK 07 AUDIO
    TITLE "Busotti - 'O' Atti Vocali"
    PERFORMER "Cathy Berberian, Bruno Canino"
    INDEX 00 21:32:20
    INDEX 01 21:36:27
  TRACK 08 AUDIO
    TITLE "Weill - Surabaya Johnny"
    PERFORMER "Cathy Berberian, Bruno Canino"
    INDEX 00 30:31:00
    INDEX 01 30:35:30
  TRACK 09 AUDIO
    TITLE "McCartney/Lennon - Ticket to Ride"
    PERFORMER "Cathy Berberian, Bruno Canino"
    INDEX 00 35:12:55
    INDEX 01 35:17:30
  TRACK 10 AUDIO
    TITLE "Gershwin - Summertime"
    PERFORMER "Cathy Berberian, Bruno Canino"
    INDEX 00 37:19:15
    INDEX 01 37:23:32
  TRACK 11 AUDIO
    TITLE "Berberian - Stripsody"
    PERFORMER "Cathy Berberian"
    INDEX 00 39:40:42
    INDEX 01 39:45:27
Код:
[CUETools log; Date: 20.12.2010 14:04:51; Version: 2.0.9]
Pregap length 00:00:32.
[CTDB TOCID: Oq4e8QimDg9RSqN3SpVyQG2.Uu8-] disk not present in database.
[AccurateRip ID: 0012ad8f-00a0a89f-990a620b] found.
Track   [ CRC    ] Status
 01     [deb5657f] (0/4) No match
 02     [c3a9b711] (0/4) No match
 03     [fa93f9ef] (0/4) No match
 04     [6a51b08c] (0/4) No match
 05     [6c4e6165] (0/4) No match
 06     [f7ae996b] (0/4) No match
 07     [3af7b0eb] (0/4) No match
 08     [9794492c] (0/4) No match
 09     [acc2f553] (0/4) No match
 10     [2daf3ad6] (0/4) No match
 11     [21fd7d59] (0/4) No match
Offsetted by -1100:
 01     [01e645ab] (4/4) Accurately ripped
 02     [2fc76a3d] (4/4) Accurately ripped
 03     [0de8033f] (4/4) Accurately ripped
 04     [aa5c1c78] (4/4) Accurately ripped
 05     [e2520a09] (4/4) Accurately ripped
 06     [2e35b00f] (4/4) Accurately ripped
 07     [b1c049bb] (4/4) Accurately ripped
 08     [37a15cf4] (4/4) Accurately ripped
 09     [55dee6df] (4/4) Accurately ripped
 10     [e5956b6e] (4/4) Accurately ripped
 11     [4485a5e9] (4/4) Accurately ripped
Track Peak [ CRC32  ] [W/O NULL] [  LOG   ]
 --   80,6 [6FD50D24] [7C23680E]   CRC32
 01   55,9 [37BE3746] [21BCE14A]
 02   30,2 [83DEF2B3] [60251C3D]
 03   80,6 [E10EEA60] [C4CB215F]
 04   50,2 [D73B3ED6] [8DE0B566]
 05   25,9 [C00C2F39] [471B3F9E]
 06   49,6 [822B559B] [F23E8A1F]
 07   71,1 [9DE84170] [02F5ACE6]
 08   58,2 [7F3B79CC] [6401DF20]
 09   70,8 [BD1535C7] [A67E19FD]
 10   17,5 [F05C6536] [A7BC5CD0]
 11   51,9 [71569170] [B34019A7]
протестую! интересно, есть ли в онлайновой БД AccurateRip нормальные рипы популярных альбомов?..
Доп. информация: Программа этого диска на первый взгляд совершенно сумасбродна. Но это только на первый взгляд. От позднего монтевердиевского 'stile concitato' в La lettera amorosa через зыбкую ткань Trois chansons de Bilitis Дебюсси на слова автора одной из крупнейших мистификаций во французской поэзии, мэтра псевдоантичной лесбийской порнопоэзии Пьера Луи (Pierre Louÿs) к антивокально-антифортепианным выходкам Кейджа A Flower и The Wonderful Widow of Eighteen Springs (последняя - на мой любимый фрагмент текста из джойсовского потока отсутствия сознания в Finnegans Wake), тупиковым эскападам Буссотти, антипопсовым интерпретациям шлягеров Вайля и битловского A Ticket to Ride и собственному концертному бису певицы Stripsody мы бредем через чащу сюжетов и звуков, уложенных в форму пронзительного гимна любви и человечскому голосу... О сказанул. Все. Закругля


Скачать торрент 143.83 МБ


Download
Для скачивания .torrent файлов необходима регистрация
Сайт не распространяет и не хранит электронные версии произведений, а лишь предоставляет доступ к создаваемому пользователями каталогу ссылок на торрент-файлы, которые содержат только списки хеш-сумм

Страница 1 из 1

Ответить на тему

   Похожие торренты   Торрент 




cron