Регистрация ·  Логин: Пароль: Запомнить   · Забыли пароль?




Ответить на тему
Статистика раздачи
Размер: 535.39 МБ | Зарегистрирован: 10 мар 2018, 13:21 | .torrent скачан: 0 раз(а)
Сидеров: [ 0  | 0 байт/сек ]   Личеров: [ 0  | 0 байт/сек ]   DHT: [ 0 / 0 ]
Автор Сообщение

Модератор
Аватара пользователя

Стаж: 6 лет
Сообщения: 7870
Молдова

Сообщение 10 мар 2018, 13:21 

[Цитировать]

Homilius Gottfried August – Johannespassion (Roderich Kreile, Jana Reiner, Franz Vitzthum, Dresdner Barockorchester)

Жанр: Oratorio
Страна-производитель диска: Германия
Год издания диска: 2007
Издатель (лейбл): Carus
Номер по каталогу: 83.261
Дата записи: 2006
Аудиокодек: FLAC
Тип рипа: image+.cue
Битрейт аудио: lossless
Продолжительность: CD1: 52’21, CD2: 66’49
Источник: собственный рип
Наличие сканов в содержимом раздачи: да
Исполнители:
Jana Reiner (soprano)
Magd - Katja Fischer (soprano)
Diener - Franz Vitzthum (countertenor)
Evangelist - Jan Kobow (tenor)
Jesus - Tobias Berndt (bass)
Pilatus - Clemens Heidrich (bass)
Knecht – Kruzianer Stephan Keucher (tenor)
Petrus - Kruzianer Christian Lutz (tenor)
Dresdner Kreuzchor
Dresdner Barockorchester
Conductor - Roderich Kreile
CD1
1. Teil 1. Choral: Der Fromme stirbt
2. Recitativo: Da Jesus solches geredet hatte
3. Choral: Mitten wir im Leben sind
4. Recitativo: Als nun Jesus wusste alles
5. Aria (B): Nun kömmt die Stunde meiner Leiden
6. Recitativo: Da fragte er sie abermal
7. Choral: Christe, aller Welt Trost
8. Recitativo: Da hatte Simon Petrus ein Schwert
9. Aria (A): Wer kann den Rat der Liebe fassen?
10. Recitativo: Simon Petrus aber folgete Jesum nach
11. Aria (T): Dein Wort ist Geist und Kraft und Segen
12. Recitativo: Da er aber solches redete
13. Choral: Was macht denn nur die wüste Not
14. Recitativo: Simon Petrus aber stund
15. Recitativo: Dich zu bekennen, Herr
16. Aria (S): Vor dir, dem Vater
17. Recitativo: Da führeten sie Jesum
18. Choral: Gloria sei dir gesungen
19. Recitativo: Da sprach Pilatus zu ihm
20. Arioso (T): Den Mörder, Barrabam
21. Aria (T): Herr, mach dich auf
22. Choral: Unter deinen Schirmen
CD2
1. Teil 2. Choral: Weg, Welt, mit deinen Freuden
2. Recitativo: Da nahm Pilatus Jesum
3. Aria (A): Ich zage, Herr
4. Recitativo: Pilatus spricht zu ihnen
5. Aria (B): Ich bin der Allmächtge
6. Recitativo: Darum, der mich dir überantwortet hat
7. Aria (S): Der Sohn soll sterben
8. Recitativo: Sie nahmen aber Jesum
9. Choral: Selig sind, die aus Erbarmen
10. Recitativo: Darnach, als Jesus wusste
11. Duetto (SS): Wir weinen dir und deiner Tugend
12. Recitativo: Die Jüden aber
13. Choral: Schreibe deine blutgen Wunden
14. Recitativo: Und der das gesehen hat
15. Aria (T): Wenn, Heiland, die dich schmähn
16. Recitativo: Darnach bat Pilatum Joseph von Arimathia
17. Coro: O Gottes Lamm
Код:
Exact Audio Copy V0.99 prebeta 5 from 4. May 2009
EAC extraction logfile from 6. January 2011, 15:42
Roderich Kreile - Dresdner Kreuzchor, Dresdner Barockorchester / Homilius - Johannespassion CD1
Used drive  : PIONEER DVD-RW  DVR-218L   Adapter: 1  ID: 0
Read mode               : Secure
Utilize accurate stream : Yes
Defeat audio cache      : Yes
Make use of C2 pointers : No
Read offset correction                      : 6
Overread into Lead-In and Lead-Out          : No
Fill up missing offset samples with silence : Yes
Delete leading and trailing silent blocks   : No
Null samples used in CRC calculations       : Yes
Used interface                              : Native Win32 interface for Win NT & 2000
Used output format              : User Defined Encoder
Selected bitrate                : 768 kBit/s
Quality                         : High
Add ID3 tag                     : No
Command line compressor         : C:\Program Files\Exact Audio Copy\FLAC\FLAC.EXE
Additional command line options : -T "DATE=%y" -T "GENRE=%m" -8 -V %s
TOC of the extracted CD
     Track |   Start  |  Length  | Start sector | End sector
    ---------------------------------------------------------
        1  |  0:00.00 |  0:41.04 |         0    |     3078
        2  |  0:41.04 |  0:48.24 |      3079    |     6702
        3  |  1:29.28 |  1:39.32 |      6703    |    14159
        4  |  3:08.60 |  0:49.12 |     14160    |    17846
        5  |  3:57.72 |  7:32.61 |     17847    |    51807
        6  | 11:30.58 |  0:59.55 |     51808    |    56287
        7  | 12:30.38 |  0:59.69 |     56288    |    60781
        8  | 13:30.32 |  1:11.73 |     60782    |    66179
        9  | 14:42.30 |  7:29.31 |     66180    |    99885
       10  | 22:11.61 |  2:29.00 |     99886    |   111060
       11  | 24:40.61 |  7:19.45 |    111061    |   144030
       12  | 32:00.31 |  0:48.20 |    144031    |   147650
       13  | 32:48.51 |  0:27.12 |    147651    |   149687
       14  | 33:15.63 |  0:50.12 |    149688    |   153449
       15  | 34:06.00 |  1:17.06 |    153450    |   159230
       16  | 35:23.06 |  4:26.29 |    159231    |   179209
       17  | 39:49.35 |  3:32.55 |    179210    |   195164
       18  | 43:22.15 |  1:40.58 |    195165    |   202722
       19  | 45:02.73 |  1:48.35 |    202723    |   210857
       20  | 46:51.33 |  0:48.04 |    210858    |   214461
       21  | 47:39.37 |  3:37.62 |    214462    |   230798
       22  | 51:17.24 |  1:02.04 |    230799    |   235452
Range status and errors
Selected range
     Filename C:\Homilius - Johannespassion CD1.wav
     Peak level 99.1 %
     Range quality 100.0 %
     Test CRC 41D26382
     Copy CRC 41D26382
     Copy OK
No errors occurred
AccurateRip summary
Track  1  accurately ripped (confidence 2)  [A6CED0D9]
Track  2  accurately ripped (confidence 2)  [7C34FD84]
Track  3  accurately ripped (confidence 2)  [006EF6B3]
Track  4  accurately ripped (confidence 2)  [4F186B3A]
Track  5  accurately ripped (confidence 2)  [3918F22F]
Track  6  not present in database
Track  7  accurately ripped (confidence 2)  [AC9445EA]
Track  8  accurately ripped (confidence 2)  [CB08B7B7]
Track  9  accurately ripped (confidence 2)  [1C24973A]
Track 10  accurately ripped (confidence 2)  [A77D3068]
Track 11  accurately ripped (confidence 2)  [28F2E149]
Track 12  accurately ripped (confidence 2)  [88580A1E]
Track 13  accurately ripped (confidence 2)  [1D2B4E98]
Track 14  accurately ripped (confidence 2)  [1BD6E1BE]
Track 15  accurately ripped (confidence 2)  [0B59DFA1]
Track 16  accurately ripped (confidence 2)  [A0485208]
Track 17  accurately ripped (confidence 2)  [99F1A9A6]
Track 18  accurately ripped (confidence 2)  [C22CB0AF]
Track 19  accurately ripped (confidence 2)  [B8D94346]
Track 20  accurately ripped (confidence 2)  [4FE42820]
Track 21  accurately ripped (confidence 2)  [F05F3B9D]
Track 22  accurately ripped (confidence 2)  [FA7A0976]
21 track(s) accurately ripped
 1 track(s) not present in the AccurateRip database
Some tracks could not be verified as accurate
End of status report
Код:
Exact Audio Copy V0.99 prebeta 5 from 4. May 2009
EAC extraction logfile from 6. January 2011, 19:40
Roderich Kreile - Dresdner Kreuzchor, Dresdner Barockorchester / Homilius - Johannespassion CD2
Used drive  : PIONEER DVD-RW  DVR-218L   Adapter: 1  ID: 0
Read mode               : Secure
Utilize accurate stream : Yes
Defeat audio cache      : Yes
Make use of C2 pointers : No
Read offset correction                      : 6
Overread into Lead-In and Lead-Out          : No
Fill up missing offset samples with silence : Yes
Delete leading and trailing silent blocks   : No
Null samples used in CRC calculations       : Yes
Used interface                              : Native Win32 interface for Win NT & 2000
Used output format              : User Defined Encoder
Selected bitrate                : 768 kBit/s
Quality                         : High
Add ID3 tag                     : No
Command line compressor         : C:\Program Files\Exact Audio Copy\FLAC\FLAC.EXE
Additional command line options : -T "DATE=%y" -T "GENRE=%m" -8 -V %s
TOC of the extracted CD
     Track |   Start  |  Length  | Start sector | End sector
    ---------------------------------------------------------
        1  |  0:00.00 |  0:50.64 |         0    |     3813
        2  |  0:50.64 |  2:29.08 |      3814    |    14996
        3  |  3:19.72 |  7:37.28 |     14997    |    49299
        4  | 10:57.25 |  2:28.08 |     49300    |    60407
        5  | 13:25.33 |  8:06.36 |     60408    |    96893
        6  | 21:31.69 |  3:26.36 |     96894    |   112379
        7  | 24:58.30 |  8:23.59 |    112380    |   150163
        8  | 33:22.14 |  5:09.40 |    150164    |   173378
        9  | 38:31.54 |  1:03.18 |    173379    |   178121
       10  | 39:34.72 |  1:37.31 |    178122    |   185427
       11  | 41:12.28 |  9:37.07 |    185428    |   228709
       12  | 50:49.35 |  1:08.13 |    228710    |   233822
       13  | 51:57.48 |  0:58.07 |    233823    |   238179
       14  | 52:55.55 |  1:06.01 |    238180    |   243130
       15  | 54:01.56 |  3:46.61 |    243131    |   260141
       16  | 57:48.42 |  1:51.30 |    260142    |   268496
       17  | 59:39.72 |  7:07.08 |    268497    |   300529
Range status and errors
Selected range
     Filename C:\Homilius - Johannespassion CD2.wav
     Peak level 99.2 %
     Range quality 100.0 %
     Test CRC 6B543713
     Copy CRC 6B543713
     Copy OK
No errors occurred
AccurateRip summary
Track  1  accurately ripped (confidence 2)  [32CFB8B4]
Track  2  accurately ripped (confidence 2)  [3ACDDC12]
Track  3  accurately ripped (confidence 2)  [240222BD]
Track  4  accurately ripped (confidence 2)  [5BA15D22]
Track  5  accurately ripped (confidence 2)  [81F1B286]
Track  6  accurately ripped (confidence 2)  [013EA716]
Track  7  accurately ripped (confidence 2)  [02BE191F]
Track  8  accurately ripped (confidence 2)  [D56B04CD]
Track  9  accurately ripped (confidence 2)  [8301C846]
Track 10  accurately ripped (confidence 2)  [89A5A01D]
Track 11  not present in database
Track 12  accurately ripped (confidence 2)  [30BE7366]
Track 13  accurately ripped (confidence 2)  [FEE733A3]
Track 14  accurately ripped (confidence 2)  [490189BA]
Track 15  accurately ripped (confidence 2)  [C37BDDC9]
Track 16  accurately ripped (confidence 2)  [C147E104]
Track 17  accurately ripped (confidence 2)  [461D0FB3]
16 track(s) accurately ripped
 1 track(s) not present in the AccurateRip database
Some tracks could not be verified as accurate
End of status report


Скачать торрент 535.39 МБ


Download
Для скачивания .torrent файлов необходима регистрация
Сайт не распространяет и не хранит электронные версии произведений, а лишь предоставляет доступ к создаваемому пользователями каталогу ссылок на торрент-файлы, которые содержат только списки хеш-сумм

Страница 1 из 1

Ответить на тему

   Похожие торренты   Торрент 




cron