Регистрация ·  Логин: Пароль: Запомнить   · Забыли пароль?




Ответить на тему
Статистика раздачи
Размер: 320.17 МБ | Зарегистрирован: 10 мар 2018, 13:21 | .torrent скачан: 0 раз(а)
Сидеров: [ 0  | 0 байт/сек ]   Личеров: [ 0  | 0 байт/сек ]   DHT: [ 0 / 0 ]
Автор Сообщение

Модератор
Аватара пользователя

Стаж: 6 лет
Сообщения: 7870
Молдова

Сообщение 10 мар 2018, 13:21 

[Цитировать]

Georg Philipp Telemann - Cantates 'Des Harmonische Gottesdienst' & Fantaisies pour clavier (Gerard Lesne, Academie Royale de Musique de Paris, Jean-Claude Veilhan)

Жанр: Baroque
Страна-производитель диска: France
Год издания диска: 1986
Издатель (лейбл): Adda
Номер по каталогу: 581051
Дата записи: 1985
Аудиокодек: FLAC
Тип рипа: image+.cue
Битрейт аудио: lossless
Продолжительность: 64'07"
Источник: собственный рип
Наличие сканов в содержимом раздачи: да
Исполнители:
Gerard Lesne (contre-tenor)
Academie Royale de Musique de Paris
Jean-Claude Veilhan (flute traversiere et direction artistique)
Mirella Giardelli (orgue et clavecin)
Philippe Muller (violoncelle)
Philippe Foulon (viole de gambe)
Matthias Spaeter (luth)
Enregistrement: Eglise evangelique Saint-Jean, Paris, 3-5 juin 1985
1. Cantate No. 44 'Kein Vogel kann im Weiten Fliegen' 9:18
2. Cantate No. 12 'Was ist mir doch das Ruhmen nutze' 10:56
3. Fantaisies No. 11 & 12 pour clavecin 11:09
4. Cantate No. 3 'Ihr Volker hort, wie Gott aufs neue' 12:12
5. Fantaisies No. 5 & 6 pour orque 9:26
6. Cantate No. 7 'Erscheine Gott in deinem Tempel' 10:31
Код:
Exact Audio Copy V0.99 prebeta 5 from 4. May 2009
EAC extraction logfile from 6. June 2011, 17:30
Gerard Lesne, Academie Royale de Musique, Jean-Claude Veilhan / Telemann - Cantates 'Des Harmonische Gottesdienst' & Fantaisie pour clavier
Used drive  : Optiarc DVD RW AD-7203S   Adapter: 1  ID: 0
Read mode               : Secure
Utilize accurate stream : Yes
Defeat audio cache      : Yes
Make use of C2 pointers : No
Read offset correction                      : 48
Overread into Lead-In and Lead-Out          : No
Fill up missing offset samples with silence : Yes
Delete leading and trailing silent blocks   : No
Null samples used in CRC calculations       : Yes
Used interface                              : Installed external ASPI interface
Used output format              : User Defined Encoder
Selected bitrate                : 768 kBit/s
Quality                         : High
Add ID3 tag                     : No
Command line compressor         : M:\prog\Exact Audio Copy\FLAC\FLAC.EXE
Additional command line options : -8 -V %s
TOC of the extracted CD
     Track |   Start  |  Length  | Start sector | End sector
    ---------------------------------------------------------
        1  |  0:00.33 |  9:25.17 |        33    |    42424
        2  |  9:25.50 | 11:02.60 |     42425    |    92134
        3  | 20:28.35 | 11:16.00 |     92135    |   142834
        4  | 31:44.35 | 12:18.63 |    142835    |   198247
        5  | 44:03.23 |  9:32.17 |    198248    |   241164
        6  | 53:35.40 | 10:31.73 |    241165    |   288562
Range status and errors
Selected range
     Filename N:\@Results\Telemann - Cantates et Fantaisie - Gerard Lesne, Academie Royale de Musique, J.C.Veilhan.wav
     Peak level 97.5 %
     Range quality 100.0 %
     Test CRC D07C65C2
     Copy CRC D07C65C2
     Copy OK
No errors occurred
End of status report


Скачать торрент 320.17 МБ


Download
Для скачивания .torrent файлов необходима регистрация
Сайт не распространяет и не хранит электронные версии произведений, а лишь предоставляет доступ к создаваемому пользователями каталогу ссылок на торрент-файлы, которые содержат только списки хеш-сумм

Страница 1 из 1

Ответить на тему

   Похожие торренты   Торрент 




cron