Регистрация ·  Логин: Пароль: Запомнить   · Забыли пароль?




Ответить на тему
Статистика раздачи
Размер: 609.16 МБ | Зарегистрирован: 10 мар 2018, 13:21 | .torrent скачан: 0 раз(а)
Сидеров: [ 2  | 0 байт/сек ]   Личеров: [ 1  | 0 байт/сек ]   DHT: [ 2 / 1 ]
Автор Сообщение

Модератор
Аватара пользователя

Стаж: 6 лет
Сообщения: 7870
Молдова

Сообщение 10 мар 2018, 13:21 

[Цитировать]

Scarlatti Domenico - Cantate da Camera (Lavinia Bertotti, Daniele Boccaccio, Ensemble Seicento Italiano)

Жанр: Baroque/Cantatas
Страна-производитель диска: EU
Год издания диска: 2008
Издатель (лейбл): Brilliant Classics
Номер по каталогу: 93361
Дата записи: 2000
Аудиокодек: APE
Тип рипа: image+.cue
Битрейт аудио: lossless
Продолжительность: CD1:68’56; CD2:62’40
Источник: собственный рип
Наличие сканов в содержимом раздачи: да
Исполнители:
Lavinia Bertotti, soprano
Ensemble Seicento Italiano
Daniele Boccaccio, conductor & harpsichord
CD1
01. Cantata I "O qual meco, o Nice": I. Allegrissimo
02. II. Andante cantabile
03. III. Allegro
04. IV. Recitativo: O qual meco Nice Cantiaga
05. V. Aria, Andante cantabile: Perche non dimi almeno
06. VI. Recitativo: Di, rispondi spietata
07. VII. Aria, Allegro: Dire non voglio tanto
08. Cantata II "Se fedele tu m'adori": I. Aria: Se fedele tu m'adori
09. II. Recitativo: Tirsi, poiche ti sai
10. III. Aria, Allegro: Non e contenta l'Ape ingegnosa
11. Cantata III "Dir vorrei": I. Aria, Cantabile: Dir vorrei
12. II. Recitativo: Qual'or da te lontano
13. III. Aria, Allegro resoluto: Quante furie ha il cieco Averno
14. Cantata V "Che vidi oh' Ciel, che vidi": I. Recitativo, Grave: Che vidi oh' Ciel, che vidi
15. II. Aria, Andante cantabile: Ben crudele e chi la mira
16. III. Recitativo: Priva del caro bene
17. IV. Aria, Allegro moderato: Se Nube oscura ricopre il giorno
CD2
01. Cantata IV "Pur nel sonno almen tal'ora": I. Introduzione alla cantata
02. II. Minuet
03. III. Aria, Andante lento: Pur nel sonno almen tal'ora
04. IV. Recitativo: Pria dell' aurora a Fille
05. V. Aria, Allegro moderato: Parti con l'ombra e ver
06. Cantata VI "Piangete occhi dolenti": I. Recitativo: Piangete occhi dolenti
07. II. Aria, Moderato cantabile: Sono amante
08. III. Recitativo: Lumi, non piu, tergete quell' amor
09. IV. Aria, Allegro: Messagier di questo foglio
10. Cantata VII "Tinte a note di sangue": I. Recitativo: Tinte a note di sangue
11. II. Aria, Andante comodo, Moderato: Tuo mi chiami, e tuo non sono
12. III. Recitativo: Almen se d'altro amante
13. IV. Aria, Adagio/Presto/Adagio/Presto: Se mi dirai: 'cor mio'
14. Cantata VIII "Scritte con falso inganno": I. Recitativo: Scritte con falso inganno
15. II. Aria: Che vuol dir quell 'tuo sono'
16. III. Recitativo: Dimmi lingua bugiarda
17. IVa. Aria, Andante moderato: Vorresti, si, vorresti
18. IVb. Aria, Allegro: Vorresti, si, vorresti (reconstruction)
[code][/code]
Exact Audio Copy V0.99 prebeta 4 from 23. January 2008
EAC extraction logfile from 25. November 2010, 23:02
Lavinia Bertotti, Daniele Boccaccio, Ensemble Seicento Italiano / Domenico Scarlatti - Cantate Da Camera CD1
Used drive : PIONEER DVD-RW DVR-218L Adapter: 1 ID: 0
Read mode : Secure
Utilize accurate stream : Yes
Defeat audio cache : Yes
Make use of C2 pointers : No
Read offset correction : 6
Overread into Lead-In and Lead-Out : No
Fill up missing offset samples with silence : Yes
Delete leading and trailing silent blocks : No
Null samples used in CRC calculations : Yes
Used interface : Native Win32 interface for Win NT & 2000
Used output format : Internal WAV Routines
Sample format : 44.100 Hz; 16 Bit; Stereo
TOC of the extracted CD
Track | Start | Length | Start sector | End sector
---------------------------------------------------------
1 | 0:00.00 | 4:03.27 | 0 | 18251
2 | 4:03.27 | 1:07.30 | 18252 | 23306
3 | 5:10.57 | 0:59.08 | 23307 | 27739
4 | 6:09.65 | 0:50.04 | 27740 | 31493
5 | 6:59.69 | 7:15.38 | 31494 | 64156
6 | 14:15.32 | 1:05.38 | 64157 | 69069
7 | 15:20.70 | 5:34.15 | 69070 | 94134
8 | 20:55.10 | 7:09.65 | 94135 | 126374
9 | 28:05.00 | 1:07.67 | 126375 | 131466
10 | 29:12.67 | 5:31.00 | 131467 | 156291
11 | 34:43.67 | 7:34.30 | 156292 | 190371
12 | 42:18.22 | 1:11.45 | 190372 | 195741
13 | 43:29.67 | 9:06.70 | 195742 | 236761
14 | 52:36.62 | 1:52.65 | 236762 | 245226
15 | 54:29.52 | 5:53.05 | 245227 | 271706
16 | 60:22.57 | 1:48.05 | 271707 | 279811
17 | 62:10.62 | 6:45.15 | 279812 | 310201
Range status and errors
Selected range
Filename C:\Domenico Scarlatti - Cantate Da Camera CD1.wav
Peak level 100.0 %
Range quality 100.0 %
Copy CRC 32001186
Copy OK
No errors occurred
End of status report
Exact Audio Copy V0.99 prebeta 4 from 23. January 2008
EAC extraction logfile from 25. November 2010, 23:52
Lavinia Bertotti, Daniele Boccaccio, Ensemble Seicento Italiano / Domenico Scarlatti - Cantate Da Camera CD2
Used drive : PIONEER DVD-RW DVR-218L Adapter: 1 ID: 0
Read mode : Secure
Utilize accurate stream : Yes
Defeat audio cache : Yes
Make use of C2 pointers : No
Read offset correction : 6
Overread into Lead-In and Lead-Out : No
Fill up missing offset samples with silence : Yes
Delete leading and trailing silent blocks : No
Null samples used in CRC calculations : Yes
Used interface : Native Win32 interface for Win NT & 2000
Used output format : Internal WAV Routines
Sample format : 44.100 Hz; 16 Bit; Stereo
TOC of the extracted CD
Track | Start | Length | Start sector | End sector
---------------------------------------------------------
1 | 0:00.00 | 2:46.55 | 0 | 12504
2 | 2:46.55 | 0:45.60 | 12505 | 15939
3 | 3:32.40 | 9:08.27 | 15940 | 57066
4 | 12:40.67 | 2:04.25 | 57067 | 66391
5 | 14:45.17 | 6:06.73 | 66392 | 93914
6 | 20:52.15 | 1:28.17 | 93915 | 100531
7 | 22:20.32 | 6:23.68 | 100532 | 129324
8 | 28:44.25 | 1:19.45 | 129325 | 135294
9 | 30:03.70 | 5:00.25 | 135295 | 157819
10 | 35:04.20 | 0:54.52 | 157820 | 161921
11 | 35:58.72 | 5:16.08 | 161922 | 185629
12 | 41:15.05 | 0:46.07 | 185630 | 189086
13 | 42:01.12 | 6:01.45 | 189087 | 216206
14 | 48:02.57 | 0:50.38 | 216207 | 219994
15 | 48:53.20 | 4:10.07 | 219995 | 238751
16 | 53:03.27 | 0:53.45 | 238752 | 242771
17 | 53:56.72 | 4:29.70 | 242772 | 263016
18 | 58:26.67 | 4:13.48 | 263017 | 282039
Range status and errors
Selected range
Filename C:\Domenico Scarlatti - Cantate Da Camera CD2.wav
Peak level 100.0 %
Range quality 100.0 %
Copy CRC E9430DB4
Copy OK
No errors occurred
End of status report


Скачать торрент 609.16 МБ


Download
Для скачивания .torrent файлов необходима регистрация
Сайт не распространяет и не хранит электронные версии произведений, а лишь предоставляет доступ к создаваемому пользователями каталогу ссылок на торрент-файлы, которые содержат только списки хеш-сумм

Страница 1 из 1

Ответить на тему

   Похожие торренты   Торрент 




cron