Регистрация ·  Логин: Пароль: Запомнить   · Забыли пароль?




Ответить на тему
Статистика раздачи
Размер: 953.13 МБ | Зарегистрирован: 10 мар 2018, 13:21 | .torrent скачан: 0 раз(а)
Сидеров: [ 0  | 0 байт/сек ]   Личеров: [ 0  | 0 байт/сек ]   DHT: [ 0 / 0 ]
Автор Сообщение

Модератор
Аватара пользователя

Стаж: 6 лет
Сообщения: 7870
Молдова

Сообщение 10 мар 2018, 13:21 

[Цитировать]

Marc-Antoine Charpentier - Lecons de Ténebres - Office du Mercredi Saint

Жанр: Baroque/Vocal
Год выпуска диска: 1995
Производитель диска: Virgin Veritas, (England)
Аудио кодек: FLAC
Тип рипа: image+.cue (Covers + booklet in pdf)
Битрейт аудио: lossless
Продолжительность: 1:03:52
Источник: собственный рип
[01] Antienne - Psaume 69
[02] Premiere lecon
[03] Premier Répons
[04] Seconde lecon
[05] Second répons
[06] Troisieme lecon
[07] Troisieme Répons
[08] Psaume 50

Catherine Greuillet, Caroline Pelon - dessus
Gerard Lesne - haute-contre
Christopher Purves - basse-taille
IL SEMINARIO MUSICALE
Exact Audio Copy V0.99 prebeta 5 from 4. May 2009
EAC extraction logfile from 14. September 2010, 3:28
Marc-Antoine Charpentier / Lecons de Ténčbres - Office du Mercredi Saint
Used drive : HL-DT-STDVD-RAM GSA-H55N Adapter: 0 ID: 0
Read mode : Secure
Utilize accurate stream : Yes
Defeat audio cache : Yes
Make use of C2 pointers : No
Read offset correction : 102
Overread into Lead-In and Lead-Out : No
Fill up missing offset samples with silence : Yes
Delete leading and trailing silent blocks : No
Null samples used in CRC calculations : Yes
Used interface : Native Win32 interface for Win NT & 2000
Used output format : User Defined Encoder
Selected bitrate : 768 kBit/s
Quality : High
Add ID3 tag : No
Command line compressor : G:\Program Files\Exact Audio Copy\FLAC\FLAC.EXE
Additional command line options : -6 -V -T "ARTIST=%a" -T "TITLE=%t" -T "ALBUM=%g" -T "DATE=%y" -T "TRACKNUMBER=%n" -T "GENRE=%m" -T "COMMENT=%e" %s -o %d
TOC of the extracted CD
Track | Start | Length | Start sector | End sector
---------------------------------------------------------
1 | 0:00.00 | 3:17.57 | 0 | 14831
2 | 3:17.57 | 11:01.25 | 14832 | 64431
3 | 14:19.07 | 3:08.43 | 64432 | 78574
4 | 17:27.50 | 13:47.70 | 78575 | 140669
5 | 31:15.45 | 4:08.52 | 140670 | 159321
6 | 35:24.22 | 8:20.05 | 159322 | 196826
7 | 43:44.27 | 4:05.43 | 196827 | 215244
8 | 47:49.70 | 16:02.02 | 215245 | 287396
Range status and errors
Selected range
Filename G:\Downloads\M.A.Charpentier - Lecons de tenebre (G.Lesne)\Vol.1 (Mercredi-Wednesday)\cdimage(flac).wav
Peak level 100.0 %
Range quality 100.0 %
Test CRC C71341DD
Copy CRC C71341DD
Copy OK
No errors occurred
AccurateRip summary
Track 1 accurately ripped (confidence 6) [A05063F5]
Track 2 accurately ripped (confidence 6) [B24B35AE]
Track 3 accurately ripped (confidence 6) [42C1E941]
Track 4 accurately ripped (confidence 6) [752AF0F8]
Track 5 accurately ripped (confidence 6) [02A20B4C]
Track 6 accurately ripped (confidence 6) [15B8A67F]
Track 7 accurately ripped (confidence 6) [4CAC224F]
Track 8 accurately ripped (confidence 6) [0DD1369E]
All tracks accurately ripped
End of status report
Marc-Antoine Charpentier - Lecons de Ténebres - Office du Jeudi Saint

Жанр: Baroque/Vocal
Год выпуска диска: 1995
Производитель диска: Virgin Veritas, (England)
Аудио кодек: FLAC
Тип рипа: image+.cue (Covers + booklet in pdf)
Битрейт аудио: lossless
Продолжительность: 1:06:13
Источник: собственный рип
[01] Prélude en sol mineur H 528
[02] Antienne Habitabit in tabernaculo - Psaume 14 (Plain-chant avec faux-bourdon, 1650)
[03] Premiere leçon H 121 - Jerusalem du H 120
[04] Premiere répons Omnes amici mei H 144
[05] Prélude en ré mineur H 510
[06] Seconde leçon H 139 - Jerusalem du H 138
[07] Second répons Velum templi scissum est H 128
[08] Troisieme leçon H 136 - Jerusalem du H 135
[09] Troisieme répons Tenebrae factae sunt (Plain-chant)
[10] Prélude en fa mineur H 521
[11] Psaume 50 Miserere (Plain-chant avec faux-bourdon, 1650)

Sandrine Piau - dessus
Gerard Lesne - haute-contre
Ian Honeyman - taille
Peter Harvey - basse-taille
IL SEMINARIO MUSICALE
Exact Audio Copy V0.99 prebeta 5 from 4. May 2009
EAC extraction logfile from 13. September 2010, 4:53
Il Seminario Musicale / Lecon de Ténebres - Office du Jeudi Saint
Used drive : HL-DT-STDVD-RAM GSA-H55N Adapter: 0 ID: 0
Read mode : Secure
Utilize accurate stream : Yes
Defeat audio cache : Yes
Make use of C2 pointers : No
Read offset correction : 102
Overread into Lead-In and Lead-Out : No
Fill up missing offset samples with silence : Yes
Delete leading and trailing silent blocks : No
Null samples used in CRC calculations : Yes
Used interface : Native Win32 interface for Win NT & 2000
Used output format : User Defined Encoder
Selected bitrate : 768 kBit/s
Quality : High
Add ID3 tag : No
Command line compressor : G:\Program Files\Exact Audio Copy\FLAC\FLAC.EXE
Additional command line options : -6 -V -T "ARTIST=%a" -T "TITLE=%t" -T "ALBUM=%g" -T "DATE=%y" -T "TRACKNUMBER=%n" -T "GENRE=%m" -T "COMMENT=%e" %s -o %d
TOC of the extracted CD
Track | Start | Length | Start sector | End sector
---------------------------------------------------------
1 | 0:00.33 | 1:31.32 | 33 | 6889
2 | 1:31.65 | 3:06.00 | 6890 | 20839
3 | 4:37.65 | 10:04.10 | 20840 | 66149
4 | 14:42.00 | 3:33.45 | 66150 | 82169
5 | 18:15.45 | 1:15.65 | 82170 | 87859
6 | 19:31.35 | 13:55.43 | 87860 | 150527
7 | 33:27.03 | 4:13.30 | 150528 | 169532
8 | 37:40.33 | 18:42.70 | 169533 | 253752
9 | 56:23.28 | 2:59.40 | 253753 | 267217
10 | 59:22.68 | 1:20.17 | 267218 | 273234
11 | 60:43.10 | 5:30.08 | 273235 | 297992
Range status and errors
Selected range
Filename G:\Downloads\M.A.Charpentier - Lecons de tenebre (G.Lesne)\Vol.2 (Jeudi-Thursday)\cdimage(flac).wav
Peak level 100.0 %
Range quality 99.9 %
Test CRC 76C3B593
Copy CRC 76C3B593
Copy OK
No errors occurred
AccurateRip summary
Track 1 accurately ripped (confidence 8) [B92D1B2F]
Track 2 accurately ripped (confidence 8) [DBACA4ED]
Track 3 accurately ripped (confidence 8) [43710F50]
Track 4 accurately ripped (confidence 8) [D004A0DE]
Track 5 accurately ripped (confidence 8) [02E17175]
Track 6 accurately ripped (confidence 8) [091A6A6C]
Track 7 accurately ripped (confidence 8) [4D8819E4]
Track 8 accurately ripped (confidence 8) [B6C6A963]
Track 9 accurately ripped (confidence 8) [8A6C5148]
Track 10 accurately ripped (confidence 8) [69DC122D]
Track 11 accurately ripped (confidence 7) [D9D67A0A]
All tracks accurately ripped
End of status report
Marc-Antoine Charpentier - Lecons de Ténebres - Office du Vendredi Saint

Жанр: Baroque/Vocal
Год выпуска диска: 1993
Производитель диска: Virgin Veritas, (England)
Аудио кодек: FLAC
Тип рипа: image+.cue (Covers + booklet in pdf)
Битрейт аудио: lossless
Продолжительность: 1:10:75
Источник: собственный рип
[01] Antienne - Astirerunt
[02] Psaume 26 - Dominus illuminatio mea
[03] Premiere lecon
[04] Premiere répons - Tanquam ad latronem
[05] Deuxieme lecon
[06] Deuxieme répons - Jerusalem surge
[07] Troisieme lecon
[08] Troisieme répons - VInea mea electa
[09] Psaume 50 - Misere
Agnes Mellon - dessus
Gerard Lesne - haute-contre
Ian Honeyman - taille
Jacques Bona - basse-taile
IL SEMINARIO MUSICALE
Exact Audio Copy V0.99 prebeta 5 from 4. May 2009
EAC extraction logfile from 14. September 2010, 18:17
Marc-Antoine Charpentier / Lecons de Ténebres - Office du Vendredi Saint
Used drive : HL-DT-STDVD-RAM GSA-H55N Adapter: 0 ID: 0
Read mode : Secure
Utilize accurate stream : Yes
Defeat audio cache : Yes
Make use of C2 pointers : No
Read offset correction : 102
Overread into Lead-In and Lead-Out : No
Fill up missing offset samples with silence : Yes
Delete leading and trailing silent blocks : No
Null samples used in CRC calculations : Yes
Used interface : Native Win32 interface for Win NT & 2000
Used output format : User Defined Encoder
Selected bitrate : 768 kBit/s
Quality : High
Add ID3 tag : No
Command line compressor : G:\Program Files\Exact Audio Copy\FLAC\FLAC.EXE
Additional command line options : -6 -V -T "ARTIST=%a" -T "TITLE=%t" -T "ALBUM=%g" -T "DATE=%y" -T "TRACKNUMBER=%n" -T "GENRE=%m" -T "COMMENT=%e" %s -o %d
TOC of the extracted CD
Track | Start | Length | Start sector | End sector
---------------------------------------------------------
1 | 0:00.33 | 0:48.05 | 33 | 3637
2 | 0:48.38 | 3:38.10 | 3638 | 19997
3 | 4:26.48 | 24:39.55 | 19998 | 130977
4 | 29:06.28 | 3:44.25 | 130978 | 147802
5 | 32:50.53 | 13:46.45 | 147803 | 209797
6 | 46:37.23 | 3:49.00 | 209798 | 226972
7 | 50:26.23 | 12:01.60 | 226973 | 281107
8 | 62:28.08 | 1:29.37 | 281108 | 287819
9 | 63:57.45 | 6:58.13 | 287820 | 319182
Range status and errors
Selected range
Filename G:\Downloads\M.A.Charpentier - Lecons de tenebre (G.Lesne)\Vol.3 (Vendredi-Friday)\cdimage(flac).wav
Peak level 84.6 %
Range quality 99.9 %
Test CRC B17440DC
Copy CRC B17440DC
Copy OK
No errors occurred
AccurateRip summary
Track 1 accurately ripped (confidence 5) [E85B6D6D]
Track 2 accurately ripped (confidence 5) [01524D66]
Track 3 accurately ripped (confidence 5) [CF6465B2]
Track 4 accurately ripped (confidence 5) [02C4150E]
Track 5 accurately ripped (confidence 5) [AAD3BAE9]
Track 6 accurately ripped (confidence 5) [A88CB9B1]
Track 7 accurately ripped (confidence 5) [C36BC267]
Track 8 accurately ripped (confidence 5) [4C044B4E]
Track 9 accurately ripped (confidence 5) [708BCE47]
All tracks accurately ripped
End of status report


Скачать торрент 953.13 МБ


Download
Для скачивания .torrent файлов необходима регистрация
Сайт не распространяет и не хранит электронные версии произведений, а лишь предоставляет доступ к создаваемому пользователями каталогу ссылок на торрент-файлы, которые содержат только списки хеш-сумм

Страница 1 из 1

Ответить на тему

   Похожие торренты   Торрент 




cron