Регистрация ·  Логин: Пароль: Запомнить   · Забыли пароль?




Ответить на тему
Статистика раздачи
Размер: 756.43 МБ | Зарегистрирован: 10 мар 2018, 13:21 | .torrent скачан: 0 раз(а)
Сидеров: [ 0  | 0 байт/сек ]   Личеров: [ 0  | 0 байт/сек ]   DHT: [ 0 / 0 ]
Автор Сообщение

Модератор
Аватара пользователя

Стаж: 6 лет
Сообщения: 7870
Молдова

Сообщение 10 мар 2018, 13:21 

[Цитировать]

Handel: Semele (Junge Kantorei, Frankfurt Baroque Orchestra, Joachim Carlos Martini)

Жанр: Baroque oratorio
Страна-производитель диска: Germany
Год издания диска: 2008
Издатель (лейбл): Naxos
Номер по каталогу: 8.570431-33
Дата записи: 2007
Аудиокодек: FLAC
Тип рипа: tracks+.cue
Битрейт аудио: lossless
Продолжительность: CD1 60'14 , CD2 52'39 , CD3 69'29 / Total Playing Time: 03:01:25
Источник: релизер
сайт-источник/ник/другое: kgkk
Наличие сканов в содержимом раздачи: да
Треклист:
CD1
1. Act I: Overture 00:05:11
2. Act I: Gavotte 00:02:23
3. Act I: Accompagnato: Behold! Auspicious flashes rise (Chief Priest) 00:01:26
4. Act I: Lucky omens bless our rites (Chorus of Priests and Augurs) 00:03:37
5. Act I: Recitative and Arioso: Daughter, obey, Hear and obey! (Cadmus, Athamas) 00:01:04
6. Act I: Accompagnato and Aria: Ah me! What refuge now is left me (Semele) 00:02:54
7. Act I: Aria: The morning lark to mine accords his note (Semele) 00:06:28
8. Act I: Aria: See, she blushing turns her eyes (Ino) 00:03:56
9. Act I: Recitative: Alas! She yields, and has undone me! (Ino, Athamas, Semele) 00:00:58
10. Act I: Quartet: Why dost thou thus untimely grieve (Cadmus, Ino, Athamas, Semele) 00:02:17
11. Act I: Avert these omens, all ye pow'rs! (Chorus of Priests and Augurs) 00:02:15
12. Act I: Accompagnato: Again auspicious flashes rise (Cadmus) 00:00:48
13. Act I: Recitative: Thy aid, pronubial Juno, Athamas implores! (Athamas, Semele) 00:00:19
14. Act I: Cease, cease your vows, 'tis impious to proceed (Chorus of Priests and Augurs) 00:00:40
15. Act I: Recitative: O Athamas, what torture hast thou borne! (Athamas) 00:00:30
16. Act I: Aria: Turn, hopeless lover, turn thy eye (Ino) 00:08:42
17. Act I: Recitative: She weeps! (Athamas) 00:00:27
18. Act I: Aria: Your tuneful voice my tale would tell (Athamas) 00:03:53
19. Act I: Recitative: Too well I see, Thou wilt not understand me (Ino, Athamas) 00:00:57
20. Act I: Duet: You've undone me (Ino, Athamas) 00:02:21
21. Act I: Recitative and Accompagnato: Ah, wretched prince, doom'd to disastrous love! (Cadmus, Athamas, Ino) 00:02:32
22. Act I: Hail, Cadmus, hail! Jove salutes the Theban King (Chorus of Priests and Augurs) 00:01:58
23. Act I: Aria: Endless pleasure, endless love (Semele) 00:02:54
24. Act I: Endless pleasure, endless love (Chorus of Love and Zephyrs) 00:01:46
CD2
1. Act II: Symphony 00:01:49
2. Act II: Recitative: Iris, impatient of thy stay (Juno, Iris) 00:01:05
3. Act II: Aria: There, from mortal cares retiring (Iris) 00:02:59
4. Act II: Recitative and Accompagnato: No more, I'll hear no more! (Juno, Iris) 00:02:26
5. Act II: Aria: Hence, Iris, hence away! (Juno) 00:03:53
6. Act II: Aria: Come, Zephyrs, come (Cupid) 00:06:03
7. Act II: Aria: O sleep, why dost thou leave me (Semele) 00:02:47
8. Act II: Recitative: Let me not another moment bear the pangs of absence (Semele) 00:00:22
9. Act II: Aria: Lay your doubts and fears aside (Jupiter) 00:03:07
10. Act II: Recitative: You are mortal and require time to rest (Jupiter) 00:00:34
11. Act II: Aria: With fond desiring (Semele) 00:03:34
12. Act II: How engaging, how endearing (Chorus of Loves and Zephyrs) 00:02:46
13. Act II: Recitative: Ah me! (Semele, Jupiter) 00:01:36
14. Act II: Aria: I must with speed amuse her (Jupiter) 00:04:04
15. Act II: Now Love, that everlasting boy (Chorus of Loves and Zephyrs) 00:02:32
16. Act II: Recitative: By my command now (Jupiter, Semele) 00:01:33
17. Act II: Aria: Where'er you walk (Jupiter) 00:03:28
18. Act II: Recitative: Dear sister, how was your passage hither (Semele, Ino) 00:00:47
19. Act II: Aria: But hark! (Ino) 00:01:30
20. Act II: Accompagnato and Arioso: Prepare then, ye immortal choir (Ino, Semele) 00:02:06
21. Act II: Bless the glad earth with heav'nly lays (Chorus of Nymphs and Swains) 00:02:39
CD3
1. Act III: Symphony 00:01:53
2. Act III: Accompagnato: Somnus, awake! (Juno, Iris) 00:00:32
3. Act III: Aria: Leave me, loathsome light! (Somnus) 00:03:07
4. Act III: Recitative: Dull God, canst thou attend the water's fall (Iris, Juno) 00:00:35
5. Act III: Aria: More sweet is that name (Somnus) 00:02:19
6. Act III: Recitative: My will obey (Juno, Somnus) 00:01:26
7. Act III: Duet: Obey my will (Juno, Somnus) 00:01:59
8. Act III: Aria: My racking thoughts by no kind slumbers freed (Semele) 00:03:15
9. Act III: Recitative: Thus shap'd like Ino (Juno, Semele) 00:01:08
10. Act III: Accompagnato: Behold in this mirror (Juno) 00:02:56
11. Act III: Recitative: O ecstasy of happiness! (Semele) 00:00:13
12. Act III: Aria: Myself I shall adore (Semele) 00:06:47
13. Act III: Recitative: Be wise, as you are beautiful (Juno, Semele) 00:00:30
14. Act III: Accompagnato: Conjure him by his oath (Juno) 00:01:27
15. Act III: Aria: Thus let my thanks be pay'd (Semele) 00:02:18
16. Act III: Recitative: Rich odours fill the fragrant air (Juno, Semele) 00:00:36
17. Act III: Aria: Come to my arms, my lovely fair (Jupiter) 00:03:02
18. Act III: Recitative: O Semele! Why art thou thus insensible (Jupiter, Semele) 00:01:39
19. Act III: Recitative: Speak, speak your desire (Jupiter, Semele) 00:01:20
20. Act III: Aria: Ah! Take heed what you press! (Jupiter) 00:01:16
21. Act III: Aria: No, no, I'll take no less (Semele) 00:05:28
22. Act III: Recitative: Ah, whither is she gone! (Jupiter) 00:02:57
23. Act III: Aria: Above measure is the pleasure (Juno) 00:02:40
24. Act III: Recitative: Ah me! Too late I now repent (Semele) 00:03:02
25. Act III: Recitative: Of my ill - boding dream (Ino) 00:00:18
26. Act III: Chorus: Oh, terror and astonishment! (Chorus of Priests) 00:03:05
27. Act III: Recitative: How I was hence remov'd (Ino, Cadmus, Athamas) 00:00:53
28. Act III: Aria: Despair no more shall wound me (Athamas) 00:05:25
29. Act III: Recitative: See from above the bellying clouds descend (Cadmus) 00:00:19
30. Act III: Symphony 00:02:10
31. Act III: Recitative: Apollo comes, to relieve your care (Apollo) 00:01:06
32. Act III: Happy, happy shall we be (Chorus) 00:03:48
Исполнители:
Semele, HWV 58
Secular Oratorio in Three Acts
Scholl, Elisabeth, soprano
Schmidt, Julla, soprano
Popken, Ralf, counter-tenor
Schwarz, Britta, alto
Markert, Annette, alto
Schoch, Knut, tenor
Mertens, Klaus, bass
Junge Kantorei
Frankfurt Baroque Orchestra
Joachim Carlos Martini - conductor
Audio CD (July 29, 2008)
Код:
[b]CD1[/b]
EAC extraction logfile from 17. October 2008, 14:09 for CD
Junge Kantorei, Frankfurt Baroque Orchestra / George Frideric Handel - Semele, CD 1of3
Used drive : HL-DT-STDVDRAM GSA-H62N Adapter: 2 ID: 1
Read mode : Secure with NO C2, accurate stream, disable cache
Read offset correction : 667
Overread into Lead-In and Lead-Out : No
Used output format : C:\Program Files\FLAC\flac.exe (User Defined Encoder)
320 kBit/s
Additional command line options : -8 -V -T "ARTIST=%a" -T "TITLE=%t" -T "ALBUM=%g" -T "DATE=%y" -T "TRACKNUMBER=%n" -T "GENRE=%m" -T "COMMENT=EAC FLAC -8" %s
Other options :
Fill up missing offset samples with silence : Yes
Delete leading and trailing silent blocks : No
Native Win32 interface for Win NT & 2000
Track 1
Filename G:\Z\George Frideric Handel - Semele (2008) [FLAC] (3 CDs)\Disc 1of3\01 - Act I - Overture.wav
Pre-gap length 0:00:02.00
Peak level 25.1 %
Track quality 99.9 %
Test CRC 924D3534
Copy CRC 924D3534
Copy OK
Track 2
Filename G:\Z\George Frideric Handel - Semele (2008) [FLAC] (3 CDs)\Disc 1of3\02 - Act I - Gavotte.wav
Peak level 18.8 %
Track quality 100.0 %
Test CRC 1FEDAA64
Copy CRC 1FEDAA64
Copy OK
Track 3
Filename G:\Z\George Frideric Handel - Semele (2008) [FLAC] (3 CDs)\Disc 1of3\03 - Act I - Accompagnato - Behold. Auspicious flashes rise.wav
Peak level 28.0 %
Track quality 100.0 %
Test CRC F304B89F
Copy CRC F304B89F
Copy OK
Track 4
Filename G:\Z\George Frideric Handel - Semele (2008) [FLAC] (3 CDs)\Disc 1of3\04 - Act I - Lucky omens bless our rites.wav
Peak level 96.6 %
Track quality 100.0 %
Test CRC 24A9D448
Copy CRC 24A9D448
Copy OK
Track 5
Filename G:\Z\George Frideric Handel - Semele (2008) [FLAC] (3 CDs)\Disc 1of3\05 - Act I - Recitative and Arioso - Daughter, obey, Hear and obey.wav
Peak level 29.8 %
Track quality 100.0 %
Test CRC BE12C0DA
Copy CRC BE12C0DA
Copy OK
Track 6
Filename G:\Z\George Frideric Handel - Semele (2008) [FLAC] (3 CDs)\Disc 1of3\06 - Act I - Accompagnato and Aria - Ah me. What refuge now is left me.wav
Peak level 42.9 %
Track quality 100.0 %
Test CRC 45036D40
Copy CRC 45036D40
Copy OK
Track 7
Filename G:\Z\George Frideric Handel - Semele (2008) [FLAC] (3 CDs)\Disc 1of3\07 - Act I - Aria - The morning lark to mine accords his note.wav
Peak level 62.4 %
Track quality 99.9 %
Test CRC 1637A517
Copy CRC 1637A517
Copy OK
Track 8
Filename G:\Z\George Frideric Handel - Semele (2008) [FLAC] (3 CDs)\Disc 1of3\08 - Act I - Aria - See, she blushing turns her eyes.wav
Peak level 40.6 %
Track quality 99.9 %
Test CRC BEEAAC1F
Copy CRC BEEAAC1F
Copy OK
Track 9
Filename G:\Z\George Frideric Handel - Semele (2008) [FLAC] (3 CDs)\Disc 1of3\09 - Act I - Recitative - Alas. She yields, and has undone me.wav
Peak level 42.9 %
Track quality 100.0 %
Test CRC 44EED9B4
Copy CRC 44EED9B4
Copy OK
Track 10
Filename G:\Z\George Frideric Handel - Semele (2008) [FLAC] (3 CDs)\Disc 1of3\10 - Act I - Quartet - Why dost thou thus untimely grieve.wav
Peak level 54.8 %
Track quality 99.9 %
Test CRC DDFE1B98
Copy CRC DDFE1B98
Copy OK
Track 11
Filename G:\Z\George Frideric Handel - Semele (2008) [FLAC] (3 CDs)\Disc 1of3\11 - Act I - Avert these omens, all ye pow'rs.wav
Peak level 100.0 %
Track quality 100.0 %
Test CRC 8FFFAC1E
Copy CRC 8FFFAC1E
Copy OK
Track 12
Filename G:\Z\George Frideric Handel - Semele (2008) [FLAC] (3 CDs)\Disc 1of3\12 - Act I - Accompagnato - Again auspicious flashes rise.wav
Peak level 25.3 %
Track quality 100.0 %
Test CRC 327951B3
Copy CRC 327951B3
Copy OK
Track 13
Filename G:\Z\George Frideric Handel - Semele (2008) [FLAC] (3 CDs)\Disc 1of3\13 - Act I - Recitative - Thy aid, pronubial Juno, Athamas implores.wav
Peak level 25.0 %
Track quality 100.0 %
Test CRC C3963E52
Copy CRC C3963E52
Copy OK
Track 14
Filename G:\Z\George Frideric Handel - Semele (2008) [FLAC] (3 CDs)\Disc 1of3\14 - Act I - Cease, cease your vows, 'tis impious to proceed.wav
Peak level 100.0 %
Track quality 100.0 %
Test CRC F34F089A
Copy CRC F34F089A
Copy OK
Track 15
Filename G:\Z\George Frideric Handel - Semele (2008) [FLAC] (3 CDs)\Disc 1of3\15 - Act I - Recitative - O Athamas, what torture hast thou borne.wav
Peak level 16.9 %
Track quality 99.6 %
Test CRC 7CECF110
Copy CRC 7CECF110
Copy OK
Track 16
Filename G:\Z\George Frideric Handel - Semele (2008) [FLAC] (3 CDs)\Disc 1of3\16 - Act I - Aria - Turn, hopeless lover, turn thy eye.wav
Peak level 58.5 %
Track quality 100.0 %
Test CRC 3866311F
Copy CRC 3866311F
Copy OK
Track 17
Filename G:\Z\George Frideric Handel - Semele (2008) [FLAC] (3 CDs)\Disc 1of3\17 - Act I - Recitative - She weeps.wav
Peak level 10.3 %
Track quality 100.0 %
Test CRC 03834BF4
Copy CRC 03834BF4
Copy OK
Track 18
Filename G:\Z\George Frideric Handel - Semele (2008) [FLAC] (3 CDs)\Disc 1of3\18 - Act I - Aria - Your tuneful voice my tale would tell.wav
Peak level 20.4 %
Track quality 100.0 %
Test CRC 58727595
Copy CRC 58727595
Copy OK
Track 19
Filename G:\Z\George Frideric Handel - Semele (2008) [FLAC] (3 CDs)\Disc 1of3\19 - Act I - Recitative - Too well I see, Thou wilt not understand me.wav
Peak level 31.5 %
Track quality 100.0 %
Test CRC DD950A39
Copy CRC DD950A39
Copy OK
Track 20
Filename G:\Z\George Frideric Handel - Semele (2008) [FLAC] (3 CDs)\Disc 1of3\20 - Act I - Duet - You've undone me.wav
Peak level 45.2 %
Track quality 100.0 %
Test CRC 249931C1
Copy CRC 249931C1
Copy OK
Track 21
Filename G:\Z\George Frideric Handel - Semele (2008) [FLAC] (3 CDs)\Disc 1of3\21 - Act I - Recitative and Accompagnato - Ah, wretched prince.wav
Peak level 37.3 %
Track quality 100.0 %
Test CRC 0E0BFD96
Copy CRC 0E0BFD96
Copy OK
Track 22
Filename G:\Z\George Frideric Handel - Semele (2008) [FLAC] (3 CDs)\Disc 1of3\22 - Act I - Hail, Cadmus, hail. Jove salutes the Theban King.wav
Peak level 84.3 %
Track quality 100.0 %
Test CRC A6A645F6
Copy CRC A6A645F6
Copy OK
Track 23
Filename G:\Z\George Frideric Handel - Semele (2008) [FLAC] (3 CDs)\Disc 1of3\23 - Act I - Aria - Endless pleasure, endless love.wav
Peak level 51.2 %
Track quality 100.0 %
Test CRC 1ECB869E
Copy CRC 1ECB869E
Copy OK
Track 24
Filename G:\Z\George Frideric Handel - Semele (2008) [FLAC] (3 CDs)\Disc 1of3\24 - Act I - Endless pleasure, endless love.wav
Peak level 74.9 %
Track quality 100.0 %
Test CRC 7B984B54
Copy CRC 7B984B54
Copy OK
No errors occured
End of status report
Код:
[b]CD2[/b]
EAC extraction logfile from 17. October 2008, 14:42 for CD
Junge Kantorei, Frankfurt Baroque Orchestra / George Frideric Handel - Semele, CD 2of3
Used drive : HL-DT-STDVDRAM GSA-H62N Adapter: 2 ID: 1
Read mode : Secure with NO C2, accurate stream, disable cache
Read offset correction : 667
Overread into Lead-In and Lead-Out : No
Used output format : C:\Program Files\FLAC\flac.exe (User Defined Encoder)
320 kBit/s
Additional command line options : -8 -V -T "ARTIST=%a" -T "TITLE=%t" -T "ALBUM=%g" -T "DATE=%y" -T "TRACKNUMBER=%n" -T "GENRE=%m" -T "COMMENT=EAC FLAC -8" %s
Other options :
Fill up missing offset samples with silence : Yes
Delete leading and trailing silent blocks : No
Native Win32 interface for Win NT & 2000
Track 1
Filename G:\Z\George Frideric Handel - Semele (2008) [FLAC] (3 CDs)\Disc 2of3\01 - Act II - Symphony.wav
Pre-gap length 0:00:02.00
Peak level 17.2 %
Track quality 99.9 %
Test CRC 379D309D
Copy CRC 379D309D
Copy OK
Track 2
Filename G:\Z\George Frideric Handel - Semele (2008) [FLAC] (3 CDs)\Disc 2of3\02 - Act II - Recitative - Iris, impatient of thy stay.wav
Peak level 39.0 %
Track quality 100.0 %
Test CRC 54582CE3
Copy CRC 54582CE3
Copy OK
Track 3
Filename G:\Z\George Frideric Handel - Semele (2008) [FLAC] (3 CDs)\Disc 2of3\03 - Act II - Aria - There, from mortal cares retiring.wav
Peak level 64.7 %
Track quality 99.9 %
Test CRC 08C62E72
Copy CRC 08C62E72
Copy OK
Track 4
Filename G:\Z\George Frideric Handel - Semele (2008) [FLAC] (3 CDs)\Disc 2of3\04 - Act II - Recitative and Accompagnato - No more, I'll hear no more.wav
Peak level 96.8 %
Track quality 100.0 %
Test CRC E13B7F0B
Copy CRC E13B7F0B
Copy OK
Track 5
Filename G:\Z\George Frideric Handel - Semele (2008) [FLAC] (3 CDs)\Disc 2of3\05 - Act II - Aria - Hence, Iris, hence away.wav
Peak level 43.5 %
Track quality 100.0 %
Test CRC F3A368E6
Copy CRC F3A368E6
Copy OK
Track 6
Filename G:\Z\George Frideric Handel - Semele (2008) [FLAC] (3 CDs)\Disc 2of3\06 - Act II - Aria - Come, Zephyrs, come.wav
Peak level 61.4 %
Track quality 100.0 %
Test CRC 7ABA2182
Copy CRC 7ABA2182
Copy OK
Track 7
Filename G:\Z\George Frideric Handel - Semele (2008) [FLAC] (3 CDs)\Disc 2of3\07 - Act II - Aria - O sleep, why dost thou leave me.wav
Peak level 41.6 %
Track quality 99.9 %
Test CRC 541AEBCF
Copy CRC 541AEBCF
Copy OK
Track 8
Filename G:\Z\George Frideric Handel - Semele (2008) [FLAC] (3 CDs)\Disc 2of3\08 - Act II - Recitative - Let me not another moment bear.wav
Peak level 52.3 %
Track quality 100.0 %
Test CRC 8407CEF8
Copy CRC 8407CEF8
Copy OK
Track 9
Filename G:\Z\George Frideric Handel - Semele (2008) [FLAC] (3 CDs)\Disc 2of3\09 - Act II - Aria - Lay your doubts and fears aside.wav
Peak level 36.8 %
Track quality 100.0 %
Test CRC DA8F9DCB
Copy CRC DA8F9DCB
Copy OK
Track 10
Filename G:\Z\George Frideric Handel - Semele (2008) [FLAC] (3 CDs)\Disc 2of3\10 - Act II - Recitative - You are mortal and require time to rest.wav
Peak level 29.1 %
Track quality 100.0 %
Test CRC B4F438C6
Copy CRC B4F438C6
Copy OK
Track 11
Filename G:\Z\George Frideric Handel - Semele (2008) [FLAC] (3 CDs)\Disc 2of3\11 - Act II - Aria - With fond desiring.wav
Peak level 96.7 %
Track quality 100.0 %
Test CRC 4D11B7D7
Copy CRC 4D11B7D7
Copy OK
Track 12
Filename G:\Z\George Frideric Handel - Semele (2008) [FLAC] (3 CDs)\Disc 2of3\12 - Act II - How engaging, how endearing.wav
Peak level 79.2 %
Track quality 100.0 %
Test CRC D1122022
Copy CRC D1122022
Copy OK
Track 13
Filename G:\Z\George Frideric Handel - Semele (2008) [FLAC] (3 CDs)\Disc 2of3\13 - Act II - Recitative - Ah me.wav
Peak level 51.1 %
Track quality 100.0 %
Test CRC E8E21C52
Copy CRC E8E21C52
Copy OK
Track 14
Filename G:\Z\George Frideric Handel - Semele (2008) [FLAC] (3 CDs)\Disc 2of3\14 - Act II - Aria - I must with speed amuse her.wav
Peak level 44.9 %
Track quality 100.0 %
Test CRC 6F37A7D1
Copy CRC 6F37A7D1
Copy OK
Track 15
Filename G:\Z\George Frideric Handel - Semele (2008) [FLAC] (3 CDs)\Disc 2of3\15 - Act II - Now Love, that everlasting boy.wav
Peak level 91.0 %
Track quality 100.0 %
Test CRC 5519CCC4
Copy CRC 5519CCC4
Copy OK
Track 16
Filename G:\Z\George Frideric Handel - Semele (2008) [FLAC] (3 CDs)\Disc 2of3\16 - Act II - Recitative - By my command now.wav
Peak level 30.3 %
Track quality 99.8 %
Test CRC AF97081E
Copy CRC AF97081E
Copy OK
Track 17
Filename G:\Z\George Frideric Handel - Semele (2008) [FLAC] (3 CDs)\Disc 2of3\17 - Act II - Aria - Where'er you walk.wav
Peak level 34.3 %
Track quality 100.0 %
Test CRC FED71F71
Copy CRC FED71F71
Copy OK
Track 18
Filename G:\Z\George Frideric Handel - Semele (2008) [FLAC] (3 CDs)\Disc 2of3\18 - Act II - Recitative - Dear sister, how was your passage hither.wav
Peak level 70.7 %
Track quality 100.0 %
Test CRC 8F5D9ACF
Copy CRC 8F5D9ACF
Copy OK
Track 19
Filename G:\Z\George Frideric Handel - Semele (2008) [FLAC] (3 CDs)\Disc 2of3\19 - Act II - Aria - But hark.wav
Peak level 30.4 %
Track quality 100.0 %
Test CRC 32D462CC
Copy CRC 32D462CC
Copy OK
Track 20
Filename G:\Z\George Frideric Handel - Semele (2008) [FLAC] (3 CDs)\Disc 2of3\20 - Act II - Accompagnato and Arioso - Prepare then, ye immortal choir.wav
Peak level 55.7 %
Track quality 100.0 %
Test CRC 9114E8A4
Copy CRC 9114E8A4
Copy OK
Track 21
Filename G:\Z\George Frideric Handel - Semele (2008) [FLAC] (3 CDs)\Disc 2of3\21 - Act II - Bless the glad earth with heav'nly lays.wav
Peak level 95.7 %
Track quality 99.9 %
Test CRC CFD01EA2
Copy CRC CFD01EA2
Copy OK
No errors occured
End of status report
Код:
[b]CD3[/b]
EAC extraction logfile from 17. October 2008, 15:37 for CD
Junge Kantorei, Frankfurt Baroque Orchestra / George Frideric Handel - Semele, CD 3of3
Used drive : HL-DT-STDVDRAM GSA-H62N Adapter: 2 ID: 1
Read mode : Secure with NO C2, accurate stream, disable cache
Read offset correction : 667
Overread into Lead-In and Lead-Out : No
Used output format : C:\Program Files\FLAC\flac.exe (User Defined Encoder)
320 kBit/s
Additional command line options : -8 -V -T "ARTIST=%a" -T "TITLE=%t" -T "ALBUM=%g" -T "DATE=%y" -T "TRACKNUMBER=%n" -T "GENRE=%m" -T "COMMENT=EAC FLAC -8" %s
Other options :
Fill up missing offset samples with silence : Yes
Delete leading and trailing silent blocks : No
Native Win32 interface for Win NT & 2000
Track 1
Filename G:\Z\George Frideric Handel - Semele (2008) [FLAC] (3 CDs)\Disc 3of3\01 - Act III - Symphony.wav
Pre-gap length 0:00:02.00
Peak level 10.0 %
Track quality 100.0 %
Test CRC 625DC415
Copy CRC 625DC415
Copy OK
Track 2
Filename G:\Z\George Frideric Handel - Semele (2008) [FLAC] (3 CDs)\Disc 3of3\02 - Act III - Accompagnato - Somnus, awake.wav
Peak level 33.4 %
Track quality 99.4 %
Test CRC E1271443
Copy CRC E1271443
Copy OK
Track 3
Filename G:\Z\George Frideric Handel - Semele (2008) [FLAC] (3 CDs)\Disc 3of3\03 - Act III - Aria - Leave me, loathsome light.wav
Peak level 26.1 %
Track quality 100.0 %
Test CRC C9511813
Copy CRC C9511813
Copy OK
Track 4
Filename G:\Z\George Frideric Handel - Semele (2008) [FLAC] (3 CDs)\Disc 3of3\04 - Act III - Recitative - Dull God, canst thou attend the water's fall.wav
Peak level 27.3 %
Track quality 100.0 %
Test CRC E7AA69D7
Copy CRC E7AA69D7
Copy OK
Track 5
Filename G:\Z\George Frideric Handel - Semele (2008) [FLAC] (3 CDs)\Disc 3of3\05 - Act III - Aria - More sweet is that name.wav
Peak level 37.3 %
Track quality 100.0 %
Test CRC 4567EA45
Copy CRC 4567EA45
Copy OK
Track 6
Filename G:\Z\George Frideric Handel - Semele (2008) [FLAC] (3 CDs)\Disc 3of3\06 - Act III - Recitative - My will obey.wav
Peak level 28.8 %
Track quality 100.0 %
Test CRC 6F078214
Copy CRC 6F078214
Copy OK
Track 7
Filename G:\Z\George Frideric Handel - Semele (2008) [FLAC] (3 CDs)\Disc 3of3\07 - Act III - Duet - Obey my will.wav
Peak level 33.2 %
Track quality 100.0 %
Test CRC 4F4857B2
Copy CRC 4F4857B2
Copy OK
Track 8
Filename G:\Z\George Frideric Handel - Semele (2008) [FLAC] (3 CDs)\Disc 3of3\08 - Act III - Aria - My racking thoughts by no kind slumbers freed.wav
Peak level 42.4 %
Track quality 100.0 %
Test CRC D03FC1FF
Copy CRC D03FC1FF
Copy OK
Track 9
Filename G:\Z\George Frideric Handel - Semele (2008) [FLAC] (3 CDs)\Disc 3of3\09 - Act III - Recitative - Thus shap'd like Ino.wav
Peak level 29.4 %
Track quality 100.0 %
Test CRC 1DFD7664
Copy CRC 1DFD7664
Copy OK
Track 10
Filename G:\Z\George Frideric Handel - Semele (2008) [FLAC] (3 CDs)\Disc 3of3\10 - Act III - Accompagnato - Behold in this mirror.wav
Peak level 39.4 %
Track quality 100.0 %
Test CRC EBBBE171
Copy CRC EBBBE171
Copy OK
Track 11
Filename G:\Z\George Frideric Handel - Semele (2008) [FLAC] (3 CDs)\Disc 3of3\11 - Act III - Recitative - O ecstasy of happiness.wav
Peak level 29.0 %
Track quality 100.0 %
Test CRC 5DB88A7D
Copy CRC 5DB88A7D
Copy OK
Track 12
Filename G:\Z\George Frideric Handel - Semele (2008) [FLAC] (3 CDs)\Disc 3of3\12 - Act III - Aria - Myself I shall adore.wav
Peak level 70.5 %
Track quality 100.0 %
Test CRC 0FF0B9E6
Copy CRC 0FF0B9E6
Copy OK
Track 13
Filename G:\Z\George Frideric Handel - Semele (2008) [FLAC] (3 CDs)\Disc 3of3\13 - Act III - Recitative - Be wise, as you are beautiful.wav
Peak level 26.8 %
Track quality 100.0 %
Test CRC 96EB0141
Copy CRC 96EB0141
Copy OK
Track 14
Filename G:\Z\George Frideric Handel - Semele (2008) [FLAC] (3 CDs)\Disc 3of3\14 - Act III - Accompagnato - Conjure him by his oath.wav
Peak level 29.2 %
Track quality 100.0 %
Test CRC F2ED9B2F
Copy CRC F2ED9B2F
Copy OK
Track 15
Filename G:\Z\George Frideric Handel - Semele (2008) [FLAC] (3 CDs)\Disc 3of3\15 - Act III - Aria - Thus let my thanks be pay'd.wav
Peak level 47.9 %
Track quality 99.9 %
Test CRC 7283D7DB
Copy CRC 7283D7DB
Copy OK
Track 16
Filename G:\Z\George Frideric Handel - Semele (2008) [FLAC] (3 CDs)\Disc 3of3\16 - Act III - Recitative - Rich odours fill the fragrant air.wav
Peak level 17.6 %
Track quality 100.0 %
Test CRC 520B29F2
Copy CRC 520B29F2
Copy OK
Track 17
Filename G:\Z\George Frideric Handel - Semele (2008) [FLAC] (3 CDs)\Disc 3of3\17 - Act III - Aria - Come to my arms, my lovely fair.wav
Peak level 38.3 %
Track quality 100.0 %
Test CRC 36FFC3BB
Copy CRC 36FFC3BB
Copy OK
Track 18
Filename G:\Z\George Frideric Handel - Semele (2008) [FLAC] (3 CDs)\Disc 3of3\18 - Act III - Recitative - O Semele! Why art thou thus insensible.wav
Peak level 49.2 %
Track quality 100.0 %
Test CRC 713919B3
Copy CRC 713919B3
Copy OK
Track 19
Filename G:\Z\George Frideric Handel - Semele (2008) [FLAC] (3 CDs)\Disc 3of3\19 - Act III - Recitative - Speak, speak your desire.wav
Peak level 76.9 %
Track quality 100.0 %
Test CRC AABFB7A9
Copy CRC AABFB7A9
Copy OK
Track 20
Filename G:\Z\George Frideric Handel - Semele (2008) [FLAC] (3 CDs)\Disc 3of3\20 - Act III - Aria - Ah. Take heed what you press.wav
Peak level 56.8 %
Track quality 100.0 %
Test CRC 2FC87FCA
Copy CRC 2FC87FCA
Copy OK
Track 21
Filename G:\Z\George Frideric Handel - Semele (2008) [FLAC] (3 CDs)\Disc 3of3\21 - Act III - Aria - No, no, I'll take no less.wav
Peak level 53.4 %
Track quality 100.0 %
Test CRC 04299AA2
Copy CRC 04299AA2
Copy OK
Track 22
Filename G:\Z\George Frideric Handel - Semele (2008) [FLAC] (3 CDs)\Disc 3of3\22 - Act III - Recitative - Ah, whither is she gone.wav
Peak level 30.2 %
Track quality 100.0 %
Test CRC 667C080D
Copy CRC 667C080D
Copy OK
Track 23
Filename G:\Z\George Frideric Handel - Semele (2008) [FLAC] (3 CDs)\Disc 3of3\23 - Act III - Aria - Above measure is the pleasure.wav
Peak level 68.5 %
Track quality 100.0 %
Test CRC 7AC3850A
Copy CRC 7AC3850A
Copy OK
Track 24
Filename G:\Z\George Frideric Handel - Semele (2008) [FLAC] (3 CDs)\Disc 3of3\24 - Act III - Recitative - Ah me. Too late I now repent.wav
Peak level 69.6 %
Track quality 100.0 %
Test CRC B9C1D6BC
Copy CRC B9C1D6BC
Copy OK
Track 25
Filename G:\Z\George Frideric Handel - Semele (2008) [FLAC] (3 CDs)\Disc 3of3\25 - Act III - Recitative - Of my ill - boding dream.wav
Peak level 14.0 %
Track quality 99.3 %
Test CRC D45BE451
Copy CRC D45BE451
Copy OK
Track 26
Filename G:\Z\George Frideric Handel - Semele (2008) [FLAC] (3 CDs)\Disc 3of3\26 - Act III - Chorus - Oh, terror and astonishment.wav
Peak level 99.6 %
Track quality 100.0 %
Test CRC 73045129
Copy CRC 73045129
Copy OK
Track 27
Filename G:\Z\George Frideric Handel - Semele (2008) [FLAC] (3 CDs)\Disc 3of3\27 - Act III - Recitative - How I was hence remov'd.wav
Peak level 26.2 %
Track quality 100.0 %
Test CRC 7DD15414
Copy CRC 7DD15414
Copy OK
Track 28
Filename G:\Z\George Frideric Handel - Semele (2008) [FLAC] (3 CDs)\Disc 3of3\28 - Act III - Aria - Despair no more shall wound me.wav
Peak level 40.7 %
Track quality 99.9 %
Test CRC 8F511175
Copy CRC 8F511175
Copy OK
Track 29
Filename G:\Z\George Frideric Handel - Semele (2008) [FLAC] (3 CDs)\Disc 3of3\29 - Act III - Recitative - See from above the bellying clouds descend.wav
Peak level 23.8 %
Track quality 100.0 %
Test CRC 6F962896
Copy CRC 6F962896
Copy OK
Track 30
Filename G:\Z\George Frideric Handel - Semele (2008) [FLAC] (3 CDs)\Disc 3of3\30 - Act III - Symphony.wav
Peak level 23.1 %
Track quality 100.0 %
Test CRC 577B0D68
Copy CRC 577B0D68
Copy OK
Track 31
Filename G:\Z\George Frideric Handel - Semele (2008) [FLAC] (3 CDs)\Disc 3of3\31 - Act III - Recitative - Apollo comes, to relieve your care.wav
Peak level 24.6 %
Track quality 99.8 %
Test CRC A7691F7B
Copy CRC A7691F7B
Copy OK
Track 32
Filename G:\Z\George Frideric Handel - Semele (2008) [FLAC] (3 CDs)\Disc 3of3\32 - Act III - Happy, happy shall we be.wav
Peak level 100.0 %
Track quality 100.0 %
Test CRC 0308DB90
Copy CRC 0308DB90
Copy OK
No errors occured
End of status report
Код:
[b]CD1[/b]
REM GENRE Classical
REM DATE 2008
REM DISCID 580E1C18
REM COMMENT "ExactAudioCopy v0.95b3"
PERFORMER "Junge Kantorei, Frankfurt Baroque Orchestra"
TITLE "George Frideric Handel - Semele, CD 1of3"
FILE "01 - Act I - Overture.wav" WAVE
TRACK 01 AUDIO
TITLE "Act I - Overture"
PERFORMER "Junge Kantorei, Frankfurt Baroque Orchestra"
INDEX 01 00:00:00
FILE "02 - Act I - Gavotte.wav" WAVE
TRACK 02 AUDIO
TITLE "Act I - Gavotte"
PERFORMER "Junge Kantorei, Frankfurt Baroque Orchestra"
INDEX 01 00:00:00
FILE "03 - Act I - Accompagnato - Behold. Auspicious flashes rise.wav" WAVE
TRACK 03 AUDIO
TITLE "Act I - Accompagnato - Behold. Auspicious flashes rise"
PERFORMER "Junge Kantorei, Frankfurt Baroque Orchestra"
INDEX 01 00:00:00
FILE "04 - Act I - Lucky omens bless our rites.wav" WAVE
TRACK 04 AUDIO
TITLE "Act I - Lucky omens bless our rites"
PERFORMER "Junge Kantorei, Frankfurt Baroque Orchestra"
INDEX 01 00:00:00
FILE "05 - Act I - Recitative and Arioso - Daughter, obey, Hear and obey.wav" WAVE
TRACK 05 AUDIO
TITLE "Act I - Recitative and Arioso - Daughter, obey, Hear and obey"
PERFORMER "Junge Kantorei, Frankfurt Baroque Orchestra"
INDEX 01 00:00:00
FILE "06 - Act I - Accompagnato and Aria - Ah me. What refuge now is left me.wav" WAVE
TRACK 06 AUDIO
TITLE "Act I - Accompagnato and Aria - Ah me. What refuge now is left me"
PERFORMER "Junge Kantorei, Frankfurt Baroque Orchestra"
INDEX 01 00:00:00
FILE "07 - Act I - Aria - The morning lark to mine accords his note.wav" WAVE
TRACK 07 AUDIO
TITLE "Act I - Aria - The morning lark to mine accords his note"
PERFORMER "Junge Kantorei, Frankfurt Baroque Orchestra"
INDEX 01 00:00:00
FILE "08 - Act I - Aria - See, she blushing turns her eyes.wav" WAVE
TRACK 08 AUDIO
TITLE "Act I - Aria - See, she blushing turns her eyes"
PERFORMER "Junge Kantorei, Frankfurt Baroque Orchestra"
INDEX 01 00:00:00
FILE "09 - Act I - Recitative - Alas. She yields, and has undone me.wav" WAVE
TRACK 09 AUDIO
TITLE "Act I - Recitative - Alas. She yields, and has undone me"
PERFORMER "Junge Kantorei, Frankfurt Baroque Orchestra"
INDEX 01 00:00:00
FILE "10 - Act I - Quartet - Why dost thou thus untimely grieve.wav" WAVE
TRACK 10 AUDIO
TITLE "Act I - Quartet - Why dost thou thus untimely grieve"
PERFORMER "Junge Kantorei, Frankfurt Baroque Orchestra"
INDEX 01 00:00:00
FILE "11 - Act I - Avert these omens, all ye pow'rs.wav" WAVE
TRACK 11 AUDIO
TITLE "Act I - Avert these omens, all ye pow'rs"
PERFORMER "Junge Kantorei, Frankfurt Baroque Orchestra"
INDEX 01 00:00:00
FILE "12 - Act I - Accompagnato - Again auspicious flashes rise.wav" WAVE
TRACK 12 AUDIO
TITLE "Act I - Accompagnato - Again auspicious flashes rise"
PERFORMER "Junge Kantorei, Frankfurt Baroque Orchestra"
INDEX 01 00:00:00
FILE "13 - Act I - Recitative - Thy aid, pronubial Juno, Athamas implores.wav" WAVE
TRACK 13 AUDIO
TITLE "Act I - Recitative - Thy aid, pronubial Juno, Athamas implores"
PERFORMER "Junge Kantorei, Frankfurt Baroque Orchestra"
INDEX 01 00:00:00
FILE "14 - Act I - Cease, cease your vows, 'tis impious to proceed.wav" WAVE
TRACK 14 AUDIO
TITLE "Act I - Cease, cease your vows, 'tis impious to proceed"
PERFORMER "Junge Kantorei, Frankfurt Baroque Orchestra"
INDEX 01 00:00:00
FILE "15 - Act I - Recitative - O Athamas, what torture hast thou borne.wav" WAVE
TRACK 15 AUDIO
TITLE "Act I - Recitative - O Athamas, what torture hast thou borne"
PERFORMER "Junge Kantorei, Frankfurt Baroque Orchestra"
INDEX 01 00:00:00
FILE "16 - Act I - Aria - Turn, hopeless lover, turn thy eye.wav" WAVE
TRACK 16 AUDIO
TITLE "Act I - Aria - Turn, hopeless lover, turn thy eye"
PERFORMER "Junge Kantorei, Frankfurt Baroque Orchestra"
INDEX 01 00:00:00
FILE "17 - Act I - Recitative - She weeps.wav" WAVE
TRACK 17 AUDIO
TITLE "Act I - Recitative - She weeps"
PERFORMER "Junge Kantorei, Frankfurt Baroque Orchestra"
INDEX 01 00:00:00
FILE "18 - Act I - Aria - Your tuneful voice my tale would tell.wav" WAVE
TRACK 18 AUDIO
TITLE "Act I - Aria - Your tuneful voice my tale would tell"
PERFORMER "Junge Kantorei, Frankfurt Baroque Orchestra"
INDEX 01 00:00:00
FILE "19 - Act I - Recitative - Too well I see, Thou wilt not understand me.wav" WAVE
TRACK 19 AUDIO
TITLE "Act I - Recitative - Too well I see, Thou wilt not understand me"
PERFORMER "Junge Kantorei, Frankfurt Baroque Orchestra"
INDEX 01 00:00:00
FILE "20 - Act I - Duet - You've undone me.wav" WAVE
TRACK 20 AUDIO
TITLE "Act I - Duet - You've undone me"
PERFORMER "Junge Kantorei, Frankfurt Baroque Orchestra"
INDEX 01 00:00:00
FILE "21 - Act I - Recitative and Accompagnato - Ah, wretched prince.wav" WAVE
TRACK 21 AUDIO
TITLE "Act I - Recitative and Accompagnato - Ah, wretched prince"
PERFORMER "Junge Kantorei, Frankfurt Baroque Orchestra"
INDEX 01 00:00:00
FILE "22 - Act I - Hail, Cadmus, hail. Jove salutes the Theban King.wav" WAVE
TRACK 22 AUDIO
TITLE "Act I - Hail, Cadmus, hail. Jove salutes the Theban King"
PERFORMER "Junge Kantorei, Frankfurt Baroque Orchestra"
INDEX 01 00:00:00
FILE "23 - Act I - Aria - Endless pleasure, endless love.wav" WAVE
TRACK 23 AUDIO
TITLE "Act I - Aria - Endless pleasure, endless love"
PERFORMER "Junge Kantorei, Frankfurt Baroque Orchestra"
INDEX 01 00:00:00
FILE "24 - Act I - Endless pleasure, endless love.wav" WAVE
TRACK 24 AUDIO
TITLE "Act I - Endless pleasure, endless love"
PERFORMER "Junge Kantorei, Frankfurt Baroque Orchestra"
INDEX 01 00:00:00
Код:
[b]CD2[/b]
REM GENRE Classical
REM DATE 2008
REM DISCID 300C1915
REM COMMENT "ExactAudioCopy v0.95b3"
PERFORMER "Junge Kantorei, Frankfurt Baroque Orchestra"
TITLE "George Frideric Handel - Semele, CD 2of3"
FILE "01 - Act II - Symphony.wav" WAVE
TRACK 01 AUDIO
TITLE "Act II - Symphony"
PERFORMER "Junge Kantorei, Frankfurt Baroque Orchestra"
INDEX 01 00:00:00
FILE "02 - Act II - Recitative - Iris, impatient of thy stay.wav" WAVE
TRACK 02 AUDIO
TITLE "Act II - Recitative - Iris, impatient of thy stay"
PERFORMER "Junge Kantorei, Frankfurt Baroque Orchestra"
INDEX 01 00:00:00
FILE "03 - Act II - Aria - There, from mortal cares retiring.wav" WAVE
TRACK 03 AUDIO
TITLE "Act II - Aria - There, from mortal cares retiring"
PERFORMER "Junge Kantorei, Frankfurt Baroque Orchestra"
INDEX 01 00:00:00
FILE "04 - Act II - Recitative and Accompagnato - No more, I'll hear no more.wav" WAVE
TRACK 04 AUDIO
TITLE "Act II - Recitative and Accompagnato - No more, I'll hear no more"
PERFORMER "Junge Kantorei, Frankfurt Baroque Orchestra"
INDEX 01 00:00:00
FILE "05 - Act II - Aria - Hence, Iris, hence away.wav" WAVE
TRACK 05 AUDIO
TITLE "Act II - Aria - Hence, Iris, hence away"
PERFORMER "Junge Kantorei, Frankfurt Baroque Orchestra"
INDEX 01 00:00:00
FILE "06 - Act II - Aria - Come, Zephyrs, come.wav" WAVE
TRACK 06 AUDIO
TITLE "Act II - Aria - Come, Zephyrs, come"
PERFORMER "Junge Kantorei, Frankfurt Baroque Orchestra"
INDEX 01 00:00:00
FILE "07 - Act II - Aria - O sleep, why dost thou leave me.wav" WAVE
TRACK 07 AUDIO
TITLE "Act II - Aria - O sleep, why dost thou leave me"
PERFORMER "Junge Kantorei, Frankfurt Baroque Orchestra"
INDEX 01 00:00:00
FILE "08 - Act II - Recitative - Let me not another moment bear.wav" WAVE
TRACK 08 AUDIO
TITLE "Act II - Recitative - Let me not another moment bear"
PERFORMER "Junge Kantorei, Frankfurt Baroque Orchestra"
INDEX 01 00:00:00
FILE "09 - Act II - Aria - Lay your doubts and fears aside.wav" WAVE
TRACK 09 AUDIO
TITLE "Act II - Aria - Lay your doubts and fears aside"
PERFORMER "Junge Kantorei, Frankfurt Baroque Orchestra"
INDEX 01 00:00:00
FILE "10 - Act II - Recitative - You are mortal and require time to rest.wav" WAVE
TRACK 10 AUDIO
TITLE "Act II - Recitative - You are mortal and require time to rest"
PERFORMER "Junge Kantorei, Frankfurt Baroque Orchestra"
INDEX 01 00:00:00
FILE "11 - Act II - Aria - With fond desiring.wav" WAVE
TRACK 11 AUDIO
TITLE "Act II - Aria - With fond desiring"
PERFORMER "Junge Kantorei, Frankfurt Baroque Orchestra"
INDEX 01 00:00:00
FILE "12 - Act II - How engaging, how endearing.wav" WAVE
TRACK 12 AUDIO
TITLE "Act II - How engaging, how endearing"
PERFORMER "Junge Kantorei, Frankfurt Baroque Orchestra"
INDEX 01 00:00:00
FILE "13 - Act II - Recitative - Ah me.wav" WAVE
TRACK 13 AUDIO
TITLE "Act II - Recitative - Ah me"
PERFORMER "Junge Kantorei, Frankfurt Baroque Orchestra"
INDEX 01 00:00:00
FILE "14 - Act II - Aria - I must with speed amuse her.wav" WAVE
TRACK 14 AUDIO
TITLE "Act II - Aria - I must with speed amuse her"
PERFORMER "Junge Kantorei, Frankfurt Baroque Orchestra"
INDEX 01 00:00:00
FILE "15 - Act II - Now Love, that everlasting boy.wav" WAVE
TRACK 15 AUDIO
TITLE "Act II - Now Love, that everlasting boy"
PERFORMER "Junge Kantorei, Frankfurt Baroque Orchestra"
INDEX 01 00:00:00
FILE "16 - Act II - Recitative - By my command now.wav" WAVE
TRACK 16 AUDIO
TITLE "Act II - Recitative - By my command now"
PERFORMER "Junge Kantorei, Frankfurt Baroque Orchestra"
INDEX 01 00:00:00
FILE "17 - Act II - Aria - Where'er you walk.wav" WAVE
TRACK 17 AUDIO
TITLE "Act II - Aria - Where'er you walk"
PERFORMER "Junge Kantorei, Frankfurt Baroque Orchestra"
INDEX 01 00:00:00
FILE "18 - Act II - Recitative - Dear sister, how was your passage hither.wav" WAVE
TRACK 18 AUDIO
TITLE "Act II - Recitative - Dear sister, how was your passage hither"
PERFORMER "Junge Kantorei, Frankfurt Baroque Orchestra"
INDEX 01 00:00:00
FILE "19 - Act II - Aria - But hark.wav" WAVE
TRACK 19 AUDIO
TITLE "Act II - Aria - But hark"
PERFORMER "Junge Kantorei, Frankfurt Baroque Orchestra"
INDEX 01 00:00:00
FILE "20 - Act II - Accompagnato and Arioso - Prepare then, ye immortal choir.wav" WAVE
TRACK 20 AUDIO
TITLE "Act II - Accompagnato and Arioso - Prepare then, ye immortal choir"
PERFORMER "Junge Kantorei, Frankfurt Baroque Orchestra"
INDEX 01 00:00:00
FILE "21 - Act II - Bless the glad earth with heav'nly lays.wav" WAVE
TRACK 21 AUDIO
TITLE "Act II - Bless the glad earth with heav'nly lays"
PERFORMER "Junge Kantorei, Frankfurt Baroque Orchestra"
INDEX 01 00:00:00
Код:
[b]CD3[/b]
REM GENRE Classical
REM DATE 2008
REM DISCID 580E1C18
REM COMMENT "ExactAudioCopy v0.95b3"
PERFORMER "Junge Kantorei, Frankfurt Baroque Orchestra"
TITLE "George Frideric Handel - Semele, CD 1of3"
FILE "01 - Act I - Overture.wav" WAVE
TRACK 01 AUDIO
TITLE "Act I - Overture"
PERFORMER "Junge Kantorei, Frankfurt Baroque Orchestra"
INDEX 01 00:00:00
FILE "02 - Act I - Gavotte.wav" WAVE
TRACK 02 AUDIO
TITLE "Act I - Gavotte"
PERFORMER "Junge Kantorei, Frankfurt Baroque Orchestra"
INDEX 01 00:00:00
FILE "03 - Act I - Accompagnato - Behold. Auspicious flashes rise.wav" WAVE
TRACK 03 AUDIO
TITLE "Act I - Accompagnato - Behold. Auspicious flashes rise"
PERFORMER "Junge Kantorei, Frankfurt Baroque Orchestra"
INDEX 01 00:00:00
FILE "04 - Act I - Lucky omens bless our rites.wav" WAVE
TRACK 04 AUDIO
TITLE "Act I - Lucky omens bless our rites"
PERFORMER "Junge Kantorei, Frankfurt Baroque Orchestra"
INDEX 01 00:00:00
FILE "05 - Act I - Recitative and Arioso - Daughter, obey, Hear and obey.wav" WAVE
TRACK 05 AUDIO
TITLE "Act I - Recitative and Arioso - Daughter, obey, Hear and obey"
PERFORMER "Junge Kantorei, Frankfurt Baroque Orchestra"
INDEX 01 00:00:00
FILE "06 - Act I - Accompagnato and Aria - Ah me. What refuge now is left me.wav" WAVE
TRACK 06 AUDIO
TITLE "Act I - Accompagnato and Aria - Ah me. What refuge now is left me"
PERFORMER "Junge Kantorei, Frankfurt Baroque Orchestra"
INDEX 01 00:00:00
FILE "07 - Act I - Aria - The morning lark to mine accords his note.wav" WAVE
TRACK 07 AUDIO
TITLE "Act I - Aria - The morning lark to mine accords his note"
PERFORMER "Junge Kantorei, Frankfurt Baroque Orchestra"
INDEX 01 00:00:00
FILE "08 - Act I - Aria - See, she blushing turns her eyes.wav" WAVE
TRACK 08 AUDIO
TITLE "Act I - Aria - See, she blushing turns her eyes"
PERFORMER "Junge Kantorei, Frankfurt Baroque Orchestra"
INDEX 01 00:00:00
FILE "09 - Act I - Recitative - Alas. She yields, and has undone me.wav" WAVE
TRACK 09 AUDIO
TITLE "Act I - Recitative - Alas. She yields, and has undone me"
PERFORMER "Junge Kantorei, Frankfurt Baroque Orchestra"
INDEX 01 00:00:00
FILE "10 - Act I - Quartet - Why dost thou thus untimely grieve.wav" WAVE
TRACK 10 AUDIO
TITLE "Act I - Quartet - Why dost thou thus untimely grieve"
PERFORMER "Junge Kantorei, Frankfurt Baroque Orchestra"
INDEX 01 00:00:00
FILE "11 - Act I - Avert these omens, all ye pow'rs.wav" WAVE
TRACK 11 AUDIO
TITLE "Act I - Avert these omens, all ye pow'rs"
PERFORMER "Junge Kantorei, Frankfurt Baroque Orchestra"
INDEX 01 00:00:00
FILE "12 - Act I - Accompagnato - Again auspicious flashes rise.wav" WAVE
TRACK 12 AUDIO
TITLE "Act I - Accompagnato - Again auspicious flashes rise"
PERFORMER "Junge Kantorei, Frankfurt Baroque Orchestra"
INDEX 01 00:00:00
FILE "13 - Act I - Recitative - Thy aid, pronubial Juno, Athamas implores.wav" WAVE
TRACK 13 AUDIO
TITLE "Act I - Recitative - Thy aid, pronubial Juno, Athamas implores"
PERFORMER "Junge Kantorei, Frankfurt Baroque Orchestra"
INDEX 01 00:00:00
FILE "14 - Act I - Cease, cease your vows, 'tis impious to proceed.wav" WAVE
TRACK 14 AUDIO
TITLE "Act I - Cease, cease your vows, 'tis impious to proceed"
PERFORMER "Junge Kantorei, Frankfurt Baroque Orchestra"
INDEX 01 00:00:00
FILE "15 - Act I - Recitative - O Athamas, what torture hast thou borne.wav" WAVE
TRACK 15 AUDIO
TITLE "Act I - Recitative - O Athamas, what torture hast thou borne"
PERFORMER "Junge Kantorei, Frankfurt Baroque Orchestra"
INDEX 01 00:00:00
FILE "16 - Act I - Aria - Turn, hopeless lover, turn thy eye.wav" WAVE
TRACK 16 AUDIO
TITLE "Act I - Aria - Turn, hopeless lover, turn thy eye"
PERFORMER "Junge Kantorei, Frankfurt Baroque Orchestra"
INDEX 01 00:00:00
FILE "17 - Act I - Recitative - She weeps.wav" WAVE
TRACK 17 AUDIO
TITLE "Act I - Recitative - She weeps"
PERFORMER "Junge Kantorei, Frankfurt Baroque Orchestra"
INDEX 01 00:00:00
FILE "18 - Act I - Aria - Your tuneful voice my tale would tell.wav" WAVE
TRACK 18 AUDIO
TITLE "Act I - Aria - Your tuneful voice my tale would tell"
PERFORMER "Junge Kantorei, Frankfurt Baroque Orchestra"
INDEX 01 00:00:00
FILE "19 - Act I - Recitative - Too well I see, Thou wilt not understand me.wav" WAVE
TRACK 19 AUDIO
TITLE "Act I - Recitative - Too well I see, Thou wilt not understand me"
PERFORMER "Junge Kantorei, Frankfurt Baroque Orchestra"
INDEX 01 00:00:00
FILE "20 - Act I - Duet - You've undone me.wav" WAVE
TRACK 20 AUDIO
TITLE "Act I - Duet - You've undone me"
PERFORMER "Junge Kantorei, Frankfurt Baroque Orchestra"
INDEX 01 00:00:00
FILE "21 - Act I - Recitative and Accompagnato - Ah, wretched prince.wav" WAVE
TRACK 21 AUDIO
TITLE "Act I - Recitative and Accompagnato - Ah, wretched prince"
PERFORMER "Junge Kantorei, Frankfurt Baroque Orchestra"
INDEX 01 00:00:00
FILE "22 - Act I - Hail, Cadmus, hail. Jove salutes the Theban King.wav" WAVE
TRACK 22 AUDIO
TITLE "Act I - Hail, Cadmus, hail. Jove salutes the Theban King"
PERFORMER "Junge Kantorei, Frankfurt Baroque Orchestra"
INDEX 01 00:00:00
FILE "23 - Act I - Aria - Endless pleasure, endless love.wav" WAVE
TRACK 23 AUDIO
TITLE "Act I - Aria - Endless pleasure, endless love"
PERFORMER "Junge Kantorei, Frankfurt Baroque Orchestra"
INDEX 01 00:00:00
FILE "24 - Act I - Endless pleasure, endless love.wav" WAVE
TRACK 24 AUDIO
TITLE "Act I - Endless pleasure, endless love"
PERFORMER "Junge Kantorei, Frankfurt Baroque Orchestra"
INDEX 01 00:00:00


Скачать торрент 756.43 МБ


Download
Для скачивания .torrent файлов необходима регистрация
Сайт не распространяет и не хранит электронные версии произведений, а лишь предоставляет доступ к создаваемому пользователями каталогу ссылок на торрент-файлы, которые содержат только списки хеш-сумм

Страница 1 из 1

Ответить на тему

   Похожие торренты   Торрент