Регистрация ·  Логин: Пароль: Запомнить   · Забыли пароль?




Ответить на тему
Статистика раздачи
Размер: 270.97 МБ | Зарегистрирован: 10 мар 2018, 13:22 | .torrent скачан: 0 раз(а)
Сидеров: [ 0  | 0 байт/сек ]   Личеров: [ 0  | 0 байт/сек ]   DHT: [ 0 / 0 ]
Автор Сообщение

Модератор
Аватара пользователя

Стаж: 6 лет
Сообщения: 7870
Молдова

Сообщение 10 мар 2018, 13:22 

[Цитировать]

Antonio de Cabezon - Tientos y Glosados (Ensemble Accentus - T. Wimmer)

Жанр: Ancient Music
Год выпуска диска: 1997
Производитель диска: Naxos
Аудио кодек: FLAC
Тип рипа: tracks+.cue
Битрейт аудио: lossless
Продолжительность: 53:21
Трэклист:
01. Diferencias sobre la Gallarda Milanesa (02:25)
02. Tiento I (02:51
03. Fabordón y glosas del Primer Tono Ilano (03:10)
04. Ancol que col partire (03:02)
05. Himno: Ave, maris stella VI (02:14)
06. Pavana con su glosa (03:11)
07. Pues a mi desconsolado (Juan de Cabezón) (02:37)
08. Dic nobis, Maria (02:59)
09. Diferencias sobre Guárda me las vacas (03:17)
10. Diferencias sobre el canto de La dama le demanda (03:38)
11. Fabordón y glosas del Sexto Tono (04:06)
12. Diferencias sobre el canto del Cauallero (02:27)
13. Pavana Italiana (01:54)
14. Tiento XVIII (03:59)
15. Himno: Te lucis ante terminum (01:17)
16. Du uien sela (03:06)
17. Susana un jur: Glosado (Hernando de Cabezón) (04:12)
18. Romance: Para quien crie yo cabellos (02:15)
19. Himno: Pange lingua V (01:41)
20. Rugier, glosado de Antonio (01:06)
Ensemble Accentus
Thomas Wimmer
Код:
Exact Audio Copy V0.99 prebeta 4 from 23. January 2008
EAC extraction logfile from 27. November 2009, 20:47
Cabezón, Antonio de / Tientos y Glosados
Used drive  : PIONEER DVD-ROM DVD-121   Adapter: 0  ID: 1
Read mode               : Secure
Utilize accurate stream : Yes
Defeat audio cache      : Yes
Make use of C2 pointers : No
Read offset correction                      : 102
Overread into Lead-In and Lead-Out          : No
Fill up missing offset samples with silence : Yes
Delete leading and trailing silent blocks   : No
Null samples used in CRC calculations       : Yes
Used interface                              : Installed external ASPI interface
Gap handling                                : Appended to previous track
Used output format              : User Defined Encoder
Selected bitrate                : 1024 kBit/s
Quality                         : High
Add ID3 tag                     : No
Command line compressor         : C:\Flac\flac.exe
Additional command line options : -4 -V -T "ARTIST=%a" -T "TITLE=%t" -T "ALBUM=%g" -T "DATE=%y" -T "TRACKNUMBER=%n" -T "TOTALTRACKS=%x" -T "GENRE=%m" -T "COMMENT=%e" %s -o %d
TOC of the extracted CD
     Track |   Start  |  Length  | Start sector | End sector
    ---------------------------------------------------------
        1  |  0:00.32 |  2:25.63 |        32    |    10969
        2  |  2:26.20 |  2:51.44 |     10970    |    23838
        3  |  5:17.64 |  3:10.54 |     23839    |    38142
        4  |  8:28.43 |  3:02.56 |     38143    |    51848
        5  | 11:31.24 |  2:14.30 |     51849    |    61928
        6  | 13:45.54 |  3:11.67 |     61929    |    76320
        7  | 16:57.46 |  2:37.49 |     76321    |    88144
        8  | 19:35.20 |  2:59.14 |     88145    |   101583
        9  | 22:34.34 |  3:17.67 |    101584    |   116425
       10  | 25:52.26 |  3:38.14 |    116426    |   132789
       11  | 29:30.40 |  4:06.63 |    132790    |   151302
       12  | 33:37.28 |  2:27.46 |    151303    |   162373
       13  | 36:04.74 |  1:54.05 |    162374    |   170928
       14  | 37:59.04 |  3:59.65 |    170929    |   188918
       15  | 41:58.69 |  1:17.05 |    188919    |   194698
       16  | 43:15.74 |  3:06.69 |    194699    |   208717
       17  | 46:22.68 |  4:12.61 |    208718    |   227678
       18  | 50:35.54 |  2:15.54 |    227679    |   237857
       19  | 52:51.33 |  1:41.46 |    237858    |   245478
       20  | 54:33.04 |  1:06.57 |    245479    |   250485
Track  1
     Filename D:\Music\Cabezón, Antonio de\[1997] Tientos y Glosados\01 - Diferencias sobre la Gallarda Milanesa.wav
     Pre-gap length  0:00:02.32
     Peak level 87.4 %
     Track quality 100.0 %
     Test CRC D8104071
     Copy CRC D8104071
     Accurately ripped (confidence 2)  [27A5B770]
     Copy OK
Track  2
     Filename D:\Music\Cabezón, Antonio de\[1997] Tientos y Glosados\02 - Tiento I.wav
     Pre-gap length  0:00:03.08
     Peak level 87.8 %
     Track quality 100.0 %
     Test CRC 0F52C6FB
     Copy CRC 0F52C6FB
     Accurately ripped (confidence 2)  [E42E4669]
     Copy OK
Track  3
     Filename D:\Music\Cabezón, Antonio de\[1997] Tientos y Glosados\03 - Fabordón y glosas del Primer Tono Ilano.wav
     Pre-gap length  0:00:03.06
     Peak level 66.1 %
     Track quality 100.0 %
     Test CRC 9F6A877F
     Copy CRC 9F6A877F
     Accurately ripped (confidence 2)  [3472204A]
     Copy OK
Track  4
     Filename D:\Music\Cabezón, Antonio de\[1997] Tientos y Glosados\04 - Ancol que col partire.wav
     Pre-gap length  0:00:01.21
     Peak level 60.0 %
     Track quality 100.0 %
     Test CRC 3561C821
     Copy CRC 3561C821
     Accurately ripped (confidence 2)  [5344C14B]
     Copy OK
Track  5
     Filename D:\Music\Cabezón, Antonio de\[1997] Tientos y Glosados\05 - Himno- Ave, maris stella VI.wav
     Pre-gap length  0:00:03.04
     Peak level 89.2 %
     Track quality 100.0 %
     Test CRC E0EDFDEF
     Copy CRC E0EDFDEF
     Accurately ripped (confidence 2)  [C42546A4]
     Copy OK
Track  6
     Filename D:\Music\Cabezón, Antonio de\[1997] Tientos y Glosados\06 - Pavana con su glosa.wav
     Pre-gap length  0:00:02.69
     Peak level 87.1 %
     Track quality 100.0 %
     Test CRC F978CB08
     Copy CRC F978CB08
     Accurately ripped (confidence 2)  [B68EA57D]
     Copy OK
Track  7
     Filename D:\Music\Cabezón, Antonio de\[1997] Tientos y Glosados\07 - Pues a mi desconsolado (Juan de Cabezón).wav
     Pre-gap length  0:00:03.10
     Peak level 96.2 %
     Track quality 100.0 %
     Test CRC 3869EAA2
     Copy CRC 3869EAA2
     Accurately ripped (confidence 2)  [82BFB1FC]
     Copy OK
Track  8
     Filename D:\Music\Cabezón, Antonio de\[1997] Tientos y Glosados\08 - Dic nobis, Maria.wav
     Pre-gap length  0:00:03.06
     Peak level 95.6 %
     Track quality 100.0 %
     Test CRC 7C5D7769
     Copy CRC 7C5D7769
     Accurately ripped (confidence 2)  [D63A622C]
     Copy OK
Track  9
     Filename D:\Music\Cabezón, Antonio de\[1997] Tientos y Glosados\09 - Diferencias sobre Guárda me las vacas.wav
     Pre-gap length  0:00:03.05
     Peak level 93.5 %
     Track quality 99.9 %
     Test CRC E8F1866F
     Copy CRC E8F1866F
     Accurately ripped (confidence 2)  [783601F9]
     Copy OK
Track 10
     Filename D:\Music\Cabezón, Antonio de\[1997] Tientos y Glosados\10 - Diferencias sobre el canto de La dama le demanda.wav
     Pre-gap length  0:00:03.05
     Peak level 93.6 %
     Track quality 100.0 %
     Test CRC B900B627
     Copy CRC B900B627
     Accurately ripped (confidence 2)  [A1231FDF]
     Copy OK
Track 11
     Filename D:\Music\Cabezón, Antonio de\[1997] Tientos y Glosados\11 - Fabordón y glosas del Sexto Tono.wav
     Pre-gap length  0:00:03.44
     Peak level 98.5 %
     Track quality 100.0 %
     Test CRC E4D57A9D
     Copy CRC E4D57A9D
     Accurately ripped (confidence 2)  [31504ABF]
     Copy OK
Track 12
     Filename D:\Music\Cabezón, Antonio de\[1997] Tientos y Glosados\12 - Diferencias sobre el canto del Cauallero.wav
     Pre-gap length  0:00:03.10
     Peak level 88.4 %
     Track quality 100.0 %
     Test CRC 1406A96F
     Copy CRC 1406A96F
     Accurately ripped (confidence 2)  [0EEABED2]
     Copy OK
Track 13
     Filename D:\Music\Cabezón, Antonio de\[1997] Tientos y Glosados\13 - Pavana Italiana.wav
     Pre-gap length  0:00:03.09
     Peak level 86.4 %
     Track quality 100.0 %
     Test CRC 165480BE
     Copy CRC 165480BE
     Accurately ripped (confidence 2)  [B957D630]
     Copy OK
Track 14
     Filename D:\Music\Cabezón, Antonio de\[1997] Tientos y Glosados\14 - Tiento XVIII.wav
     Pre-gap length  0:00:03.07
     Peak level 98.3 %
     Track quality 100.0 %
     Test CRC 9D1DFE98
     Copy CRC 9D1DFE98
     Accurately ripped (confidence 2)  [CA6D2044]
     Copy OK
Track 15
     Filename D:\Music\Cabezón, Antonio de\[1997] Tientos y Glosados\15 - Himno- Te lucis ante terminum.wav
     Pre-gap length  0:00:02.46
     Peak level 84.6 %
     Track quality 99.8 %
     Test CRC 0C373641
     Copy CRC 0C373641
     Accurately ripped (confidence 2)  [46849B44]
     Copy OK
Track 16
     Filename D:\Music\Cabezón, Antonio de\[1997] Tientos y Glosados\16 - Du uien sela.wav
     Pre-gap length  0:00:03.11
     Peak level 96.0 %
     Track quality 100.0 %
     Test CRC 1C294278
     Copy CRC 1C294278
     Accurately ripped (confidence 2)  [CD82A008]
     Copy OK
Track 17
     Filename D:\Music\Cabezón, Antonio de\[1997] Tientos y Glosados\17 - Susana un jur- Glosado (Hernando de Cabezón).wav
     Pre-gap length  0:00:03.07
     Peak level 94.0 %
     Track quality 100.0 %
     Test CRC 56950A71
     Copy CRC 56950A71
     Accurately ripped (confidence 2)  [4641F792]
     Copy OK
Track 18
     Filename D:\Music\Cabezón, Antonio de\[1997] Tientos y Glosados\18 - Romance- Para quien crie yo cabellos.wav
     Pre-gap length  0:00:03.05
     Peak level 89.7 %
     Track quality 100.0 %
     Test CRC BCC82469
     Copy CRC BCC82469
     Accurately ripped (confidence 2)  [40C79FBB]
     Copy OK
Track 19
     Filename D:\Music\Cabezón, Antonio de\[1997] Tientos y Glosados\19 - Himno- Pange lingua V.wav
     Pre-gap length  0:00:03.09
     Peak level 78.9 %
     Track quality 99.8 %
     Test CRC A0CDF096
     Copy CRC A0CDF096
     Accurately ripped (confidence 2)  [EA61FDF7]
     Copy OK
Track 20
     Filename D:\Music\Cabezón, Antonio de\[1997] Tientos y Glosados\20 - Rugier, glosado de Antonio.wav
     Pre-gap length  0:00:03.15
     Peak level 95.5 %
     Track quality 99.8 %
     Test CRC 95280D00
     Copy CRC 95280D00
     Accurately ripped (confidence 2)  [AF512FBC]
     Copy OK
All tracks accurately ripped
No errors occurred
End of status report


Скачать торрент 270.97 МБ


Download
Для скачивания .torrent файлов необходима регистрация
Сайт не распространяет и не хранит электронные версии произведений, а лишь предоставляет доступ к создаваемому пользователями каталогу ссылок на торрент-файлы, которые содержат только списки хеш-сумм

Страница 1 из 1

Ответить на тему

   Похожие торренты   Торрент 




cron