Регистрация ·  Логин: Пароль: Запомнить   · Забыли пароль?




Ответить на тему
Статистика раздачи
Размер: 1.17 ГБ | Зарегистрирован: 10 мар 2018, 13:22 | .torrent скачан: 0 раз(а)
Сидеров: [ 0  | 0 байт/сек ]   Личеров: [ 0  | 0 байт/сек ]   DHT: [ 0 / 0 ]
Автор Сообщение

Модератор
Аватара пользователя

Стаж: 6 лет
Сообщения: 7870
Молдова

Сообщение 10 мар 2018, 13:22 

[Цитировать]

П. И. Чайковский - Все романсы

Исполнители:
Нина Раутио (сопрано)
Илья Левинский (тенор)
Сергей Лейферкус (баритон)
Семен Скигин (фортепиано)
Жанр: Classical
Страна-производитель диска: Великобритания
Год издания диска: 1996-1998
Издатель (лейбл): BMG
Номера по каталогу: 75605 51266 2, 75605 51267 2, 75605 51268 2, 75605 51269 2, 75605 51270 2
Дата записи: 1996-1998
Аудиокодек: FLAC
Тип рипа: image+.cue
Битрейт аудио: lossless
Продолжительность: 5:15:28
Источник: собственный рип
Наличие сканов в содержимом раздачи: да


Содержание:
Сергей Лейферкус (баритон)
1. Blagoslovlyayu vas, lesa (I bless you forests) Op 47 No 5
2. To bilo ranneyu vesnoy (It was the early spring) Op 38 No 2
3. Smert' (Death) Op 57 No 5
4. Net, tol'ko tot, kto znal (No, only he who has known) Op 6 No 6
5. Primiren'ye (Reconciliation) Op 25 No 1
6. Usni, pechal'ny drug (Sleep, poor friend) Op 47 No 4
7. Na zemlyu sumrak pal (Dusk fell on the Earth) Op 47 No 3
8. Lyubov mertvetsa (The love of a dead man) Op 38 No 5
9. Moy geniy, Moi angel, Moi drug (My genius, My angel, My friend) Op 0 No 1
10. Otchevo (Why?) Op 6 No 5
11. Sleza drozhit (A tear trembles) Op 6 No 4
12. Nochi bezumnyye (Frenzied Nights) Op 60 No 6
13. Ni dova, O moy drug (Not a word, O my friend) Op 6 No 2
14. Khotel by v yedinoye slovo (I should like a single word) Op 0 No 7
15. Nye ver, moy drug (Do not believe it, my friend) Op 6 No 1
16. Na nivy zholtiye (On the golden cornfields) Op 57 No 2
17. Ni otzyva, ni slova, ni priveta (No response, or word, or greeting) Op 28 No 5
18. Sred shumnovo bala (Amid the din of the ball) Op 38 No 3
19. Serenada Don Zhuana (Don Juan's Serenade) Op 38 No 1
Нина Раутио (сопрано)
1. If only I had known (4:24)
2. He loved me so much (3:21)
3. Do not leave me (2:00)
4. The Canary (3:41)
5. Zemfira's song (2:52)
6. Gypsy's song (2:54)
7. The fearful minute (3:56)
8. It is both bitter and sweet (2:29)
9. To forget so soon (3:10)
10. Was I not a little blade of grass (6:09)
11. Take my heart away (2:12)
12. Cradle song (4:23)
13. Tell me, what in the shade of the branches (3:22)
14. Evening (2:31)
15. The mild stars shone for us (3:46)
16. Wait (3:26)
17. At bedtime (3:02)
18. Does the day reign (3:41)
Илья Левинский, тенор
1. 16 Children's Songs, Op. 54 (2:35)
2. 16 Children's Songs, Op. 54 (2:44)
3. 16 Children's Songs, Op. 54 (2:29)
4. 16 Children's Songs, Op. 54 (2:27)
5. 16 Children's Songs, Op. 54 (2:57)
6. 16 Children's Songs, Op. 54 (4:59)
7. 16 Children's Songs, Op. 54 (4:03)
8. 16 Children's Songs, Op. 54 (2:36)
9. 16 Children's Songs, Op. 54 (2:41)
10. 16 Children's Songs, Op. 54 (2:20)
11. 16 Children's Songs, Op. 54 (3:30)
12. 16 Children's Songs, Op. 54 (2:27)
13. 16 Children's Songs, Op. 54 (3:25)
14. 16 Children's Songs, Op. 54 (5:25)
15. 16 Children's Songs, Op. 54 (2:49)
16. 16 Children's Songs, Op. 54 (2:36)
17. Last Night, op 60 no 1 (2:55)
18. I'll Tell You Nothing, op 60 no 2 (2:31)
19. O, If Only You Knew, op 60 no 3 (2:34)
20. Simple Words, op 60 no 5 (2:24)
21. Behind the Window in the Shadow, op 60 no 10 (1:46)
22. Why Did I Dream of You, op 28 no 3 (3:03)
Нина Раутио (сопрано)
Сергей Лейферкус (баритон)
1. Gornimi tikho letela dusha nebesami (3:38)
2. Poymi khot' raz (1:42)
3. O, spoy tu zhe pesnyu (3:11)
4. Tak shto zhe (3:19)
5. Novogrecheskaya pesnya (4:13)
6. Kak nad goryacheyu zoloy (1:39)
7. Pesn' minyony (4:20)
8. Ya s neyu nikogda ne govoril (4:18)
9. Kak naladili: durak (2:17)
10. Glazki vesny golubie (2:37)
11. Mezzanotte (2:08)
12. Smotri, von oblako (3:00)
13. Ali mat' menya rozhala (2:59)
14. Moya balovnitsa (2:08)
15. Ne dolgo nam gulyat' (3:18)
16. O, esli b ty mogla (1:36)
17. Pimpinella (4:22)
18. Ne sprashivay (2:45)
19. Usni (3:24)
20. Lish ty odin (2:42)
21. Prosti! (2:47)
22. Podvig (3:37)
Нина Раутио (сопрано)
Илья Левинский, тенор
Сергей Лейферкус (баритон)
1. Net, nikogda ne nazovu (3:29)
2. Korol'ki (4:32)
3. Solovey (3:26)
4. Noch, op. 60 No. 9 (4:01)
5. Ya snachala tebya ne lubila (2:03)
6. Rastvoril ya okno (1:52)
7. Ya vam ne nravlyus (2:32)
8. Pervoe svidaniye (1:47)
9. Uzh gasli v komnatakh ogni (2:44)
10. Serenada: O ditya (3:19)
11. Serenade (Ou vas-tu, souffle d'aurore) (1:55)
12. Deception (2:59)
13. Serenade (J'aime dans le rayon) (3:53)
14. Qu'importe que l'hiver (2:43)
15. Les larmes (3:10)
16. Rondel (1:25)
17. My sideli s toboy (2:45)
18. Noch, op. 73 No. 2 (3:19)
19. V etu lunnuyu noch (1:51)
20. Zakatilos solntse (1:48)
21. Sred mrachnikh dney (1:51)
22. Snova kak prezhde odin (2:50)
Код:
Exact Audio Copy V1.0 beta 3 from 29. August 2011
EAC extraction logfile from 2. December 2012, 19:28
Tchaikovsky / The Complete Songs Volume I [Sergei Leiferkus, Baritone]
Used drive  : ASUS    DRW-2014L1T   Adapter: 4  ID: 1
Read mode               : Secure
Utilize accurate stream : Yes
Defeat audio cache      : Yes
Make use of C2 pointers : No
Read offset correction                      : 6
Overread into Lead-In and Lead-Out          : No
Fill up missing offset samples with silence : Yes
Delete leading and trailing silent blocks   : No
Null samples used in CRC calculations       : Yes
Used interface                              : Installed external ASPI interface
Used output format              : User Defined Encoder
Selected bitrate                : 128 kBit/s
Quality                         : High
Add ID3 tag                     : Yes
Command line compressor         : C:\Program Files\FLAC\flac.exe
Additional command line options :  -V -8 -T "Date=%year%" -T "Genre=%genre%" %source%
TOC of the extracted CD
     Track |   Start  |  Length  | Start sector | End sector
    ---------------------------------------------------------
        1  |  0:00.32 |  4:20.25 |        32    |    19556
        2  |  4:20.57 |  2:36.20 |     19557    |    31276
        3  |  6:57.02 |  2:09.63 |     31277    |    41014
        4  |  9:06.65 |  2:53.22 |     41015    |    54011
        5  | 12:00.12 |  4:57.03 |     54012    |    76289
        6  | 16:57.15 |  4:12.45 |     76290    |    95234
        7  | 21:09.60 |  4:56.47 |     95235    |   117481
        8  | 26:06.32 |  4:25.05 |    117482    |   137361
        9  | 30:31.37 |  1:36.13 |    137362    |   144574
       10  | 32:07.50 |  3:01.45 |    144575    |   158194
       11  | 35:09.20 |  3:18.22 |    158195    |   173066
       12  | 38:27.42 |  3:13.10 |    173067    |   187551
       13  | 41:40.52 |  3:12.45 |    187552    |   201996
       14  | 44:53.22 |  1:41.53 |    201997    |   209624
       15  | 46:35.00 |  3:48.72 |    209625    |   226796
       16  | 50:23.72 |  3:39.68 |    226797    |   243289
       17  | 54:03.65 |  2:26.30 |    243290    |   254269
       18  | 56:30.20 |  2:36.17 |    254270    |   265986
       19  | 59:06.37 |  2:52.38 |    265987    |   278924
Range status and errors
Selected range
     Filename C:\Temp\Чайковский. Все романсы (Лейферкус, Скигин)\1\Tchaikovsky - The Complete Songs Volume I [Sergei Leiferkus, Baritone].wav
     Peak level 95.1 %
     Extraction speed 9.3 X
     Range quality 100.0 %
     Copy CRC D9C5633B
     Copy OK
No errors occurred
AccurateRip summary
Track  1  accurately ripped (confidence 3)  [9B5CBBCD]  (AR v1)
Track  2  accurately ripped (confidence 3)  [35CFF1C3]  (AR v1)
Track  3  accurately ripped (confidence 3)  [086E59D5]  (AR v1)
Track  4  accurately ripped (confidence 3)  [BCA9F27C]  (AR v1)
Track  5  accurately ripped (confidence 3)  [6C5695D4]  (AR v1)
Track  6  accurately ripped (confidence 3)  [8D8423F0]  (AR v1)
Track  7  accurately ripped (confidence 3)  [E0B924E4]  (AR v1)
Track  8  accurately ripped (confidence 3)  [5409F42B]  (AR v1)
Track  9  accurately ripped (confidence 3)  [5684F8D0]  (AR v1)
Track 10  accurately ripped (confidence 3)  [40C68CD9]  (AR v1)
Track 11  accurately ripped (confidence 3)  [D2E41838]  (AR v1)
Track 12  accurately ripped (confidence 3)  [0C2DF057]  (AR v1)
Track 13  accurately ripped (confidence 3)  [5F1BF012]  (AR v1)
Track 14  accurately ripped (confidence 3)  [A3270466]  (AR v1)
Track 15  accurately ripped (confidence 3)  [6FA969A6]  (AR v1)
Track 16  accurately ripped (confidence 3)  [36FDFAB0]  (AR v1)
Track 17  accurately ripped (confidence 3)  [6A554D8D]  (AR v1)
Track 18  accurately ripped (confidence 3)  [092B9FCD]  (AR v1)
Track 19  accurately ripped (confidence 3)  [AB0AE11A]  (AR v1)
All tracks accurately ripped
End of status report
==== Log checksum 3C6EC32D5ECBA11C4980C06A33471953191B4EC19750D9B5FB35F7F24EEE4832 ====
Код:
Exact Audio Copy V1.0 beta 3 from 29. August 2011
EAC extraction logfile from 2. December 2012, 20:10
Nina Rautio, soprano / Tchaikovsky - The Complete Songs Volume II
Used drive  : ASUS    DRW-2014L1T   Adapter: 4  ID: 1
Read mode               : Secure
Utilize accurate stream : Yes
Defeat audio cache      : Yes
Make use of C2 pointers : No
Read offset correction                      : 6
Overread into Lead-In and Lead-Out          : No
Fill up missing offset samples with silence : Yes
Delete leading and trailing silent blocks   : No
Null samples used in CRC calculations       : Yes
Used interface                              : Installed external ASPI interface
Used output format              : User Defined Encoder
Selected bitrate                : 128 kBit/s
Quality                         : High
Add ID3 tag                     : Yes
Command line compressor         : C:\Program Files\FLAC\flac.exe
Additional command line options :  -V -8 -T "Date=%year%" -T "Genre=%genre%" %source%
TOC of the extracted CD
     Track |   Start  |  Length  | Start sector | End sector
    ---------------------------------------------------------
        1  |  0:00.32 |  4:24.73 |        32    |    19904
        2  |  4:25.30 |  3:21.15 |     19905    |    34994
        3  |  7:46.45 |  2:00.45 |     34995    |    44039
        4  |  9:47.15 |  3:41.25 |     44040    |    60639
        5  | 13:28.40 |  2:52.45 |     60640    |    73584
        6  | 16:21.10 |  2:54.47 |     73585    |    86681
        7  | 19:15.57 |  3:56.40 |     86682    |   104421
        8  | 23:12.22 |  2:29.50 |    104422    |   115646
        9  | 25:41.72 |  3:10.73 |    115647    |   129969
       10  | 28:52.70 |  6:09.35 |    129970    |   157679
       11  | 35:02.30 |  2:12.42 |    157680    |   167621
       12  | 37:14.72 |  4:23.55 |    167622    |   187401
       13  | 41:38.52 |  3:22.43 |    187402    |   202594
       14  | 45:01.20 |  2:31.15 |    202595    |   213934
       15  | 47:32.35 |  3:46.42 |    213935    |   230926
       16  | 51:19.02 |  3:26.35 |    230927    |   246411
       17  | 54:45.37 |  3:02.05 |    246412    |   260066
       18  | 57:47.42 |  3:41.13 |    260067    |   276654
Range status and errors
Selected range
     Filename C:\Temp\Чайковский. Все романсы (Лейферкус, Скигин)\2\Nina Rautio, soprano - Tchaikovsky - The Complete Songs Volume II.wav
     Peak level 99.4 %
     Extraction speed 2.4 X
     Range quality 100.0 %
     Copy CRC B5FAE749
     Copy OK
No errors occurred
AccurateRip summary
Track  1  not present in database
Track  2  not present in database
Track  3  not present in database
Track  4  not present in database
Track  5  not present in database
Track  6  not present in database
Track  7  not present in database
Track  8  not present in database
Track  9  not present in database
Track 10  not present in database
Track 11  not present in database
Track 12  not present in database
Track 13  not present in database
Track 14  not present in database
Track 15  not present in database
Track 16  not present in database
Track 17  not present in database
Track 18  not present in database
None of the tracks are present in the AccurateRip database
End of status report
==== Log checksum 2389F46410DE491157016BBCB511AC0EC451FB69327E36AE73542BA9D5AE8991 ====
Код:
Exact Audio Copy V1.0 beta 3 from 29. August 2011
EAC extraction logfile from 2. December 2012, 20:49
Tchaikovsky / The Complete Songs III (Levinsky, Skigin)
Used drive  : ASUS    DRW-2014L1T   Adapter: 4  ID: 1
Read mode               : Secure
Utilize accurate stream : Yes
Defeat audio cache      : Yes
Make use of C2 pointers : No
Read offset correction                      : 6
Overread into Lead-In and Lead-Out          : No
Fill up missing offset samples with silence : Yes
Delete leading and trailing silent blocks   : No
Null samples used in CRC calculations       : Yes
Used interface                              : Installed external ASPI interface
Used output format              : User Defined Encoder
Selected bitrate                : 128 kBit/s
Quality                         : High
Add ID3 tag                     : Yes
Command line compressor         : C:\Program Files\FLAC\flac.exe
Additional command line options :  -V -8 -T "Date=%year%" -T "Genre=%genre%" %source%
TOC of the extracted CD
     Track |   Start  |  Length  | Start sector | End sector
    ---------------------------------------------------------
        1  |  0:00.32 |  2:35.03 |        32    |    11659
        2  |  2:35.35 |  2:44.70 |     11660    |    24029
        3  |  5:20.30 |  2:29.57 |     24030    |    35261
        4  |  7:50.12 |  2:27.35 |     35262    |    46321
        5  | 10:17.47 |  2:57.63 |     46322    |    59659
        6  | 13:15.35 |  4:59.25 |     59660    |    82109
        7  | 18:14.60 |  4:03.57 |     82110    |   100391
        8  | 22:18.42 |  2:36.05 |    100392    |   112096
        9  | 24:54.47 |  2:41.73 |    112097    |   124244
       10  | 27:36.45 |  2:20.02 |    124245    |   134746
       11  | 29:56.47 |  3:30.65 |    134747    |   150561
       12  | 33:27.37 |  2:27.43 |    150562    |   161629
       13  | 35:55.05 |  3:25.42 |    161630    |   177046
       14  | 39:20.47 |  5:25.00 |    177047    |   201421
       15  | 44:45.47 |  2:49.60 |    201422    |   214156
       16  | 47:35.32 |  2:36.08 |    214157    |   225864
       17  | 50:11.40 |  2:55.05 |    225865    |   238994
       18  | 53:06.45 |  2:31.27 |    238995    |   250346
       19  | 55:37.72 |  2:34.28 |    250347    |   261924
       20  | 58:12.25 |  2:24.02 |    261925    |   272726
       21  | 60:36.27 |  1:46.35 |    272727    |   280711
       22  | 62:22.62 |  3:03.23 |    280712    |   294459
Range status and errors
Selected range
     Filename C:\Temp\Чайковский. Все романсы (Лейферкус, Скигин)\3\Tchaikovsky - The Complete Songs III (Levinsky, Skigin).wav
     Peak level 100.0 %
     Extraction speed 2.4 X
     Range quality 100.0 %
     Copy CRC 49F9DF6B
     Copy OK
No errors occurred
AccurateRip summary
Track  1  not present in database
Track  2  not present in database
Track  3  not present in database
Track  4  not present in database
Track  5  not present in database
Track  6  not present in database
Track  7  not present in database
Track  8  not present in database
Track  9  not present in database
Track 10  not present in database
Track 11  not present in database
Track 12  not present in database
Track 13  not present in database
Track 14  not present in database
Track 15  not present in database
Track 16  not present in database
Track 17  not present in database
Track 18  not present in database
Track 19  not present in database
Track 20  not present in database
Track 21  not present in database
Track 22  not present in database
None of the tracks are present in the AccurateRip database
End of status report
==== Log checksum 046CA0FFE77E05224FFA44910FA5EE65D902053ECB61C3E7824495A625B540F6 ====
Код:
Exact Audio Copy V1.0 beta 3 from 29. August 2011
EAC extraction logfile from 2. December 2012, 22:01
Unknown Artist / Unknown Title
Used drive  : ASUS    DRW-2014L1T   Adapter: 4  ID: 1
Read mode               : Secure
Utilize accurate stream : Yes
Defeat audio cache      : Yes
Make use of C2 pointers : No
Read offset correction                      : 6
Overread into Lead-In and Lead-Out          : No
Fill up missing offset samples with silence : Yes
Delete leading and trailing silent blocks   : No
Null samples used in CRC calculations       : Yes
Used interface                              : Installed external ASPI interface
Used output format              : User Defined Encoder
Selected bitrate                : 128 kBit/s
Quality                         : High
Add ID3 tag                     : Yes
Command line compressor         : C:\Program Files\FLAC\flac.exe
Additional command line options :  -V -8 -T "Date=%year%" -T "Genre=%genre%" %source%
TOC of the extracted CD
     Track |   Start  |  Length  | Start sector | End sector
    ---------------------------------------------------------
        1  |  0:00.32 |  3:38.13 |        32    |    16394
        2  |  3:38.45 |  1:42.70 |     16395    |    24114
        3  |  5:21.40 |  3:11.37 |     24115    |    38476
        4  |  8:33.02 |  3:19.03 |     38477    |    53404
        5  | 11:52.05 |  4:13.22 |     53405    |    72401
        6  | 16:05.27 |  1:39.28 |     72402    |    79854
        7  | 17:44.55 |  4:20.60 |     79855    |    99414
        8  | 22:05.40 |  4:18.07 |     99415    |   118771
        9  | 26:23.47 |  2:17.60 |    118772    |   129106
       10  | 28:41.32 |  2:37.60 |    129107    |   140941
       11  | 31:19.17 |  2:08.30 |    140942    |   150571
       12  | 33:27.47 |  3:00.70 |    150572    |   164141
       13  | 36:28.42 |  2:59.68 |    164142    |   177634
       14  | 39:28.35 |  2:08.25 |    177635    |   187259
       15  | 41:36.60 |  3:18.30 |    187260    |   202139
       16  | 44:55.15 |  1:36.62 |    202140    |   209401
       17  | 46:32.02 |  4:22.25 |    209402    |   229076
       18  | 50:54.27 |  2:45.58 |    229077    |   241509
       19  | 53:40.10 |  3:24.35 |    241510    |   256844
       20  | 57:04.45 |  2:42.10 |    256845    |   269004
       21  | 59:46.55 |  2:47.32 |    269005    |   281561
       22  | 62:34.12 |  3:37.45 |    281562    |   297881
Range status and errors
Selected range
     Filename C:\Temp\Чайковский. Все романсы (Лейферкус, Скигин)\4\Unknown Artist - Unknown Title.wav
     Peak level 90.0 %
     Extraction speed 2.4 X
     Range quality 100.0 %
     Copy CRC 98106122
     Copy OK
No errors occurred
AccurateRip summary
Track  1  not present in database
Track  2  not present in database
Track  3  not present in database
Track  4  not present in database
Track  5  not present in database
Track  6  not present in database
Track  7  not present in database
Track  8  not present in database
Track  9  not present in database
Track 10  not present in database
Track 11  not present in database
Track 12  not present in database
Track 13  not present in database
Track 14  not present in database
Track 15  not present in database
Track 16  not present in database
Track 17  not present in database
Track 18  not present in database
Track 19  not present in database
Track 20  not present in database
Track 21  not present in database
Track 22  not present in database
None of the tracks are present in the AccurateRip database
End of status report
==== Log checksum 039CCADFF19E201C20C5D5C36B5D96AE28960902C69DEDA0EF4A88DDA7BCFCDE ====
Код:
Exact Audio Copy V1.0 beta 3 from 29. August 2011
EAC extraction logfile from 2. December 2012, 22:19
Unknown Artist / Unknown Title
Used drive  : ASUS    DRW-2014L1T   Adapter: 4  ID: 1
Read mode               : Secure
Utilize accurate stream : Yes
Defeat audio cache      : Yes
Make use of C2 pointers : No
Read offset correction                      : 6
Overread into Lead-In and Lead-Out          : No
Fill up missing offset samples with silence : Yes
Delete leading and trailing silent blocks   : No
Null samples used in CRC calculations       : Yes
Used interface                              : Installed external ASPI interface
Used output format              : User Defined Encoder
Selected bitrate                : 128 kBit/s
Quality                         : High
Add ID3 tag                     : Yes
Command line compressor         : C:\Program Files\FLAC\flac.exe
Additional command line options :  -V -8 -T "Date=%year%" -T "Genre=%genre%" %source%
TOC of the extracted CD
     Track |   Start  |  Length  | Start sector | End sector
    ---------------------------------------------------------
        1  |  0:00.32 |  3:29.13 |        32    |    15719
        2  |  3:29.45 |  4:32.35 |     15720    |    36154
        3  |  8:02.05 |  3:26.45 |     36155    |    51649
        4  | 11:28.50 |  4:01.30 |     51650    |    69754
        5  | 15:30.05 |  2:03.45 |     69755    |    79024
        6  | 17:33.50 |  1:52.35 |     79025    |    87459
        7  | 19:26.10 |  2:32.65 |     87460    |    98924
        8  | 21:59.00 |  1:47.10 |     98925    |   106959
        9  | 23:46.10 |  2:44.10 |    106960    |   119269
       10  | 26:30.20 |  3:19.65 |    119270    |   134259
       11  | 29:50.10 |  1:55.40 |    134260    |   142924
       12  | 31:45.50 |  2:59.70 |    142925    |   156419
       13  | 34:45.45 |  3:53.65 |    156420    |   173959
       14  | 38:39.35 |  2:43.20 |    173960    |   186204
       15  | 41:22.55 |  3:10.05 |    186205    |   200459
       16  | 44:32.60 |  1:25.70 |    200460    |   206904
       17  | 45:58.55 |  2:45.65 |    206905    |   219344
       18  | 48:44.45 |  3:19.05 |    219345    |   234274
       19  | 52:03.50 |  1:51.10 |    234275    |   242609
       20  | 53:54.60 |  1:48.35 |    242610    |   250744
       21  | 55:43.20 |  1:51.00 |    250745    |   259069
       22  | 57:34.20 |  2:50.10 |    259070    |   271829
Range status and errors
Selected range
     Filename C:\Temp\Чайковский. Все романсы (Лейферкус, Скигин)\5\Unknown Artist - Unknown Title.wav
     Peak level 97.7 %
     Extraction speed 8.6 X
     Range quality 100.0 %
     Copy CRC CEB7F76F
     Copy OK
No errors occurred
AccurateRip summary
Track  1  not present in database
Track  2  not present in database
Track  3  not present in database
Track  4  not present in database
Track  5  not present in database
Track  6  not present in database
Track  7  not present in database
Track  8  not present in database
Track  9  not present in database
Track 10  not present in database
Track 11  not present in database
Track 12  not present in database
Track 13  not present in database
Track 14  not present in database
Track 15  not present in database
Track 16  not present in database
Track 17  not present in database
Track 18  not present in database
Track 19  not present in database
Track 20  not present in database
Track 21  not present in database
Track 22  not present in database
None of the tracks are present in the AccurateRip database
End of status report
==== Log checksum FC086452B147DBFA5FF39B689C0263596B651B724787EEB0D503B97E56FD483F ====
Код:
REM GENRE Classical
REM DATE 1996
REM DISCID 0D0E8713
REM COMMENT "ExactAudioCopy v1.0b3"
CATALOG 0000000000000
PERFORMER "Tchaikovsky"
TITLE "The Complete Songs Volume I [Sergei Leiferkus, Baritone]"
FILE "Tchaikovsky - The Complete Songs Volume I [Sergei Leiferkus, Baritone].flac" WAVE
  TRACK 01 AUDIO
    TITLE "Blagoslovlyayu vas, lesa (I bless you forests) Op 47 No 5"
    PERFORMER "Tchaikovsky"
    INDEX 00 00:00:00
    INDEX 01 00:00:32
  TRACK 02 AUDIO
    TITLE "To bilo ranneyu vesnoy (It was the early spring) Op 38 No 2"
    PERFORMER "Tchaikovsky"
    INDEX 00 04:19:20
    INDEX 01 04:20:57
  TRACK 03 AUDIO
    TITLE "Smert' (Death) Op 57 No 5"
    PERFORMER "Tchaikovsky"
    INDEX 00 06:56:05
    INDEX 01 06:57:02
  TRACK 04 AUDIO
    TITLE "Net, tol'ko tot, kto znal (No, only he who has known) Op 6 No 6"
    PERFORMER "Tchaikovsky"
    INDEX 00 09:05:72
    INDEX 01 09:06:65
  TRACK 05 AUDIO
    TITLE "Primiren'ye (Reconciliation) Op 25 No 1"
    PERFORMER "Tchaikovsky"
    INDEX 00 11:59:57
    INDEX 01 12:00:12
  TRACK 06 AUDIO
    TITLE "Usni, pechal'ny drug (Sleep, poor friend) Op 47 No 4"
    PERFORMER "Tchaikovsky"
    INDEX 00 16:56:07
    INDEX 01 16:57:15
  TRACK 07 AUDIO
    TITLE "Na zemlyu sumrak pal (Dusk fell on the Earth) Op 47 No 3"
    PERFORMER "Tchaikovsky"
    INDEX 01 21:09:60
  TRACK 08 AUDIO
    TITLE "Lyubov mertvetsa (The love of a dead man) Op 38 No 5"
    PERFORMER "Tchaikovsky"
    INDEX 00 26:04:60
    INDEX 01 26:06:32
  TRACK 09 AUDIO
    TITLE "Moy geniy, Moi angel, Moi drug (My genius, My angel, My friend) Op 0 No 1"
    PERFORMER "Tchaikovsky"
    INDEX 00 30:30:45
    INDEX 01 30:31:37
  TRACK 10 AUDIO
    TITLE "Otchevo (Why?) Op 6 No 5"
    PERFORMER "Tchaikovsky"
    INDEX 00 32:07:20
    INDEX 01 32:07:50
  TRACK 11 AUDIO
    TITLE "Sleza drozhit (A tear trembles) Op 6 No 4"
    PERFORMER "Tchaikovsky"
    INDEX 00 35:08:72
    INDEX 01 35:09:20
  TRACK 12 AUDIO
    TITLE "Nochi bezumnyye (Frenzied Nights) Op 60 No 6"
    PERFORMER "Tchaikovsky"
    INDEX 00 38:27:22
    INDEX 01 38:27:42
  TRACK 13 AUDIO
    TITLE "Ni dova, O moy drug (Not a word, O my friend) Op 6 No 2"
    PERFORMER "Tchaikovsky"
    INDEX 00 41:39:00
    INDEX 01 41:40:52
  TRACK 14 AUDIO
    TITLE "Khotel by v yedinoye slovo (I should like a single word) Op 0 No 7"
    PERFORMER "Tchaikovsky"
    INDEX 00 44:52:70
    INDEX 01 44:53:22
  TRACK 15 AUDIO
    TITLE "Nye ver, moy drug (Do not believe it, my friend) Op 6 No 1"
    PERFORMER "Tchaikovsky"
    INDEX 00 46:34:32
    INDEX 01 46:35:00
  TRACK 16 AUDIO
    TITLE "Na nivy zholtiye (On the golden cornfields) Op 57 No 2"
    PERFORMER "Tchaikovsky"
    INDEX 01 50:23:72
  TRACK 17 AUDIO
    TITLE "Ni otzyva, ni slova, ni priveta (No response, or word, or greeting) Op 28 No 5"
    PERFORMER "Tchaikovsky"
    INDEX 00 54:03:27
    INDEX 01 54:03:65
  TRACK 18 AUDIO
    TITLE "Sred shumnovo bala (Amid the din of the ball) Op 38 No 3"
    PERFORMER "Tchaikovsky"
    INDEX 00 56:29:27
    INDEX 01 56:30:20
  TRACK 19 AUDIO
    TITLE "Serenada Don Zhuana (Don Juan's Serenade) Op 38 No 1"
    PERFORMER "Tchaikovsky"
    INDEX 01 59:06:37
Код:
REM GENRE Classical
REM DATE 1996
REM DISCID 020E6812
REM COMMENT "ExactAudioCopy v1.0b3"
CATALOG 0000000000000
PERFORMER "Nina Rautio, soprano"
TITLE "Tchaikovsky - The Complete Songs Volume II"
FILE "Nina Rautio, soprano - Tchaikovsky - The Complete Songs Volume II.flac" WAVE
  TRACK 01 AUDIO
    TITLE "If only I had known"
    PERFORMER "Nina Rautio, soprano"
    INDEX 00 00:00:00
    INDEX 01 00:00:32
  TRACK 02 AUDIO
    TITLE "He loved me so much"
    PERFORMER "Nina Rautio, soprano"
    INDEX 01 04:25:30
  TRACK 03 AUDIO
    TITLE "Do not leave me"
    PERFORMER "Nina Rautio, soprano"
    INDEX 01 07:46:45
  TRACK 04 AUDIO
    TITLE "The Canary"
    PERFORMER "Nina Rautio, soprano"
    INDEX 01 09:47:15
  TRACK 05 AUDIO
    TITLE "Zemfira's song"
    PERFORMER "Nina Rautio, soprano"
    INDEX 01 13:28:40
  TRACK 06 AUDIO
    TITLE "Gypsy's song"
    PERFORMER "Nina Rautio, soprano"
    INDEX 01 16:21:10
  TRACK 07 AUDIO
    TITLE "The fearful minute"
    PERFORMER "Nina Rautio, soprano"
    INDEX 00 19:13:37
    INDEX 01 19:15:57
  TRACK 08 AUDIO
    TITLE "It is both bitter and sweet"
    PERFORMER "Nina Rautio, soprano"
    INDEX 01 23:12:22
  TRACK 09 AUDIO
    TITLE "To forget so soon"
    PERFORMER "Nina Rautio, soprano"
    INDEX 01 25:41:72
  TRACK 10 AUDIO
    TITLE "Was I not a little blade of grass"
    PERFORMER "Nina Rautio, soprano"
    INDEX 00 28:50:37
    INDEX 01 28:52:70
  TRACK 11 AUDIO
    TITLE "Take my heart away"
    PERFORMER "Nina Rautio, soprano"
    INDEX 00 35:00:50
    INDEX 01 35:02:30
  TRACK 12 AUDIO
    TITLE "Cradle song"
    PERFORMER "Nina Rautio, soprano"
    INDEX 01 37:14:72
  TRACK 13 AUDIO
    TITLE "Tell me, what in the shade of the branches"
    PERFORMER "Nina Rautio, soprano"
    INDEX 01 41:38:52
  TRACK 14 AUDIO
    TITLE "Evening"
    PERFORMER "Nina Rautio, soprano"
    INDEX 01 45:01:20
  TRACK 15 AUDIO
    TITLE "The mild stars shone for us"
    PERFORMER "Nina Rautio, soprano"
    INDEX 01 47:32:35
  TRACK 16 AUDIO
    TITLE "Wait"
    PERFORMER "Nina Rautio, soprano"
    INDEX 00 51:17:55
    INDEX 01 51:19:02
  TRACK 17 AUDIO
    TITLE "At bedtime"
    PERFORMER "Nina Rautio, soprano"
    INDEX 01 54:45:37
  TRACK 18 AUDIO
    TITLE "Does the day reign"
    PERFORMER "Nina Rautio, soprano"
    INDEX 01 57:47:42
Код:
REM GENRE Classical
REM DATE 1996
REM DISCID 5F0F5616
REM COMMENT "ExactAudioCopy v1.0b3"
CATALOG 0000000000000
PERFORMER "Tchaikovsky"
TITLE "The Complete Songs III (Levinsky, Skigin)"
FILE "Tchaikovsky - The Complete Songs III (Levinsky, Skigin).flac" WAVE
  TRACK 01 AUDIO
    TITLE "16 Children's Songs, Op. 54"
    PERFORMER "Tchaikovsky"
    INDEX 00 00:00:00
    INDEX 01 00:00:32
  TRACK 02 AUDIO
    TITLE "16 Children's Songs, Op. 54"
    PERFORMER "Tchaikovsky"
    INDEX 00 02:34:50
    INDEX 01 02:35:35
  TRACK 03 AUDIO
    TITLE "16 Children's Songs, Op. 54"
    PERFORMER "Tchaikovsky"
    INDEX 00 05:17:65
    INDEX 01 05:20:30
  TRACK 04 AUDIO
    TITLE "16 Children's Songs, Op. 54"
    PERFORMER "Tchaikovsky"
    INDEX 00 07:48:65
    INDEX 01 07:50:12
  TRACK 05 AUDIO
    TITLE "16 Children's Songs, Op. 54"
    PERFORMER "Tchaikovsky"
    INDEX 00 10:17:20
    INDEX 01 10:17:47
  TRACK 06 AUDIO
    TITLE "16 Children's Songs, Op. 54"
    PERFORMER "Tchaikovsky"
    INDEX 00 13:13:42
    INDEX 01 13:15:35
  TRACK 07 AUDIO
    TITLE "16 Children's Songs, Op. 54"
    PERFORMER "Tchaikovsky"
    INDEX 00 18:12:47
    INDEX 01 18:14:60
  TRACK 08 AUDIO
    TITLE "16 Children's Songs, Op. 54"
    PERFORMER "Tchaikovsky"
    INDEX 00 22:16:30
    INDEX 01 22:18:42
  TRACK 09 AUDIO
    TITLE "16 Children's Songs, Op. 54"
    PERFORMER "Tchaikovsky"
    INDEX 00 24:53:15
    INDEX 01 24:54:47
  TRACK 10 AUDIO
    TITLE "16 Children's Songs, Op. 54"
    PERFORMER "Tchaikovsky"
    INDEX 00 27:35:52
    INDEX 01 27:36:45
  TRACK 11 AUDIO
    TITLE "16 Children's Songs, Op. 54"
    PERFORMER "Tchaikovsky"
    INDEX 00 29:55:10
    INDEX 01 29:56:47
  TRACK 12 AUDIO
    TITLE "16 Children's Songs, Op. 54"
    PERFORMER "Tchaikovsky"
    INDEX 00 33:27:07
    INDEX 01 33:27:37
  TRACK 13 AUDIO
    TITLE "16 Children's Songs, Op. 54"
    PERFORMER "Tchaikovsky"
    INDEX 00 35:54:35
    INDEX 01 35:55:05
  TRACK 14 AUDIO
    TITLE "16 Children's Songs, Op. 54"
    PERFORMER "Tchaikovsky"
    INDEX 00 39:18:37
    INDEX 01 39:20:47
  TRACK 15 AUDIO
    TITLE "16 Children's Songs, Op. 54"
    PERFORMER "Tchaikovsky"
    INDEX 00 44:44:40
    INDEX 01 44:45:47
  TRACK 16 AUDIO
    TITLE "16 Children's Songs, Op. 54"
    PERFORMER "Tchaikovsky"
    INDEX 00 47:33:30
    INDEX 01 47:35:32
  TRACK 17 AUDIO
    TITLE "Last Night, op 60 no 1"
    PERFORMER "Tchaikovsky"
    INDEX 00 50:07:62
    INDEX 01 50:11:40
  TRACK 18 AUDIO
    TITLE "I'll Tell You Nothing, op 60 no 2"
    PERFORMER "Tchaikovsky"
    INDEX 00 53:06:35
    INDEX 01 53:06:45
  TRACK 19 AUDIO
    TITLE "O, If Only You Knew, op 60 no 3"
    PERFORMER "Tchaikovsky"
    INDEX 00 55:37:02
    INDEX 01 55:37:72
  TRACK 20 AUDIO
    TITLE "Simple Words, op 60 no 5"
    PERFORMER "Tchaikovsky"
    INDEX 00 58:12:12
    INDEX 01 58:12:25
  TRACK 21 AUDIO
    TITLE "Behind the Window in the Shadow, op 60 no 10"
    PERFORMER "Tchaikovsky"
    INDEX 00 60:35:32
    INDEX 01 60:36:27
  TRACK 22 AUDIO
    TITLE "Why Did I Dream of You, op 28 no 3"
    PERFORMER "Tchaikovsky"
    INDEX 00 62:21:25
    INDEX 01 62:22:62
Код:
REM DISCID 430F8316
REM COMMENT "ExactAudioCopy v1.0b3"
CATALOG 0000000000000
PERFORMER "Nina Rautio, Sergei Leiferkus, Semion Skigin"
TITLE "Tchaikovsky - The Complete Songs IV (Rautio, Leiferkus, Skigin)"
FILE "Tchaikovsky - The Complete Songs IV (Rautio, Leiferkus, Skigin).flac" WAVE
  TRACK 01 AUDIO
    TITLE "Gornimi tikho letela dusha nebesami"
    PERFORMER "Nina Rautio"
    ISRC GAPnG9800001
    INDEX 00 00:00:00
    INDEX 01 00:00:32
  TRACK 02 AUDIO
    TITLE "Poymi khot' raz"
    PERFORMER "Sergei Leiferkus"
    ISRC GAPnG9800002
    INDEX 01 03:38:45
  TRACK 03 AUDIO
    TITLE "O, spoy tu zhe pesnyu"
    PERFORMER "Nina Rautio"
    ISRC GAPnG9800003
    INDEX 01 05:21:40
  TRACK 04 AUDIO
    TITLE "Tak shto zhe"
    PERFORMER "Nina Rautio"
    ISRC GAPnG9800004
    INDEX 01 08:33:02
  TRACK 05 AUDIO
    TITLE "Novogrecheskaya pesnya"
    PERFORMER "Sergei Leiferkus"
    ISRC GAPnG9800005
    INDEX 01 11:52:05
  TRACK 06 AUDIO
    TITLE "Kak nad goryacheyu zoloy"
    PERFORMER "Nina Rautio"
    ISRC GAPnG9800006
    INDEX 01 16:05:27
  TRACK 07 AUDIO
    TITLE "Pesn' minyony"
    PERFORMER "Nina Rautio"
    ISRC GAPnG9800007
    INDEX 01 17:44:55
  TRACK 08 AUDIO
    TITLE "Ya s neyu nikogda ne govoril"
    PERFORMER "Sergei Leiferkus"
    ISRC GAPnG9800008
    INDEX 01 22:05:40
  TRACK 09 AUDIO
    TITLE "Kak naladili: durak"
    PERFORMER "Sergei Leiferkus"
    ISRC GAPnG9800009
    INDEX 01 26:23:47
  TRACK 10 AUDIO
    TITLE "Glazki vesny golubie"
    PERFORMER "Nina Rautio"
    ISRC GAPnG9800010
    INDEX 01 28:41:32
  TRACK 11 AUDIO
    TITLE "Mezzanotte"
    PERFORMER "Nina Rautio"
    ISRC GAPnG9800010
    INDEX 01 31:19:17
  TRACK 12 AUDIO
    TITLE "Smotri, von oblako"
    PERFORMER "Nina Rautio"
    ISRC GAPnG9800012
    INDEX 01 33:27:47
  TRACK 13 AUDIO
    TITLE "Ali mat' menya rozhala"
    PERFORMER "Nina Rautio"
    ISRC GAPnG9800013
    INDEX 01 36:28:42
  TRACK 14 AUDIO
    TITLE "Moya balovnitsa"
    PERFORMER "Sergei Leiferkus"
    ISRC GAPnG9800014
    INDEX 01 39:28:35
  TRACK 15 AUDIO
    TITLE "Ne dolgo nam gulyat'"
    PERFORMER "Nina Rautio"
    ISRC GAPnG9800015
    INDEX 01 41:36:60
  TRACK 16 AUDIO
    TITLE "O, esli b ty mogla"
    PERFORMER "Sergei Leiferkus"
    ISRC GAPnG9800016
    INDEX 01 44:55:15
  TRACK 17 AUDIO
    TITLE "Pimpinella"
    PERFORMER "Nina Rautio"
    ISRC GAPnG9800017
    INDEX 01 46:32:02
  TRACK 18 AUDIO
    TITLE "Ne sprashivay"
    PERFORMER "Nina Rautio"
    ISRC GAPnG9800018
    INDEX 01 50:54:27
  TRACK 19 AUDIO
    TITLE "Usni"
    PERFORMER "Nina Rautio"
    ISRC GAPnG9800019
    INDEX 01 53:40:10
  TRACK 20 AUDIO
    TITLE "Lish ty odin"
    PERFORMER "Nina Rautio"
    ISRC GAPnG9800020
    INDEX 01 57:04:45
  TRACK 21 AUDIO
    TITLE "Prosti!"
    PERFORMER "Nina Rautio"
    ISRC GAPnG9800021
    INDEX 01 59:46:55
  TRACK 22 AUDIO
    TITLE "Podvig"
    PERFORMER "Sergei Leiferkus"
    ISRC GAPnG9800021
    INDEX 01 62:34:12
Код:
REM DISCID 340E2816
REM COMMENT "ExactAudioCopy v1.0b3"
CATALOG 0000000000000
PERFORMER "Nina Rautio, Ilya Levinsky, Sergei Leiferkus, Semion Skigin"
TITLE "Tchaikovsky - The Complete Songs V (Rautio, Levinsky, Leiferkus, Skigin)"
FILE "Tchaikovsky - The Complete Songs V (Rautio, Levinsky, Leiferkus, Skigin).flac" WAVE
  TRACK 01 AUDIO
    TITLE "Net, nikogda ne nazovu"
    PERFORMER "Ilya Levinsky"
    ISRC GAPnG9800559
    INDEX 00 00:00:00
    INDEX 01 00:00:32
  TRACK 02 AUDIO
    TITLE "Korol'ki"
    PERFORMER "Ilya Levinsky"
    ISRC GAPnG9800560
    INDEX 01 03:29:45
  TRACK 03 AUDIO
    TITLE "Solovey"
    PERFORMER "Ilya Levinsky"
    ISRC GAPnG9800561
    INDEX 01 08:02:05
  TRACK 04 AUDIO
    TITLE "Noch, op. 60 No. 9"
    PERFORMER "Ilya Levinsky"
    ISRC GAPnG9800562
    INDEX 01 11:28:50
  TRACK 05 AUDIO
    TITLE "Ya snachala tebya ne lubila"
    PERFORMER "Nina Rautio"
    ISRC GAPnG9800563
    INDEX 01 15:30:05
  TRACK 06 AUDIO
    TITLE "Rastvoril ya okno"
    PERFORMER "Sergei Leiferkus"
    ISRC GAPnG9800564
    INDEX 01 17:33:50
  TRACK 07 AUDIO
    TITLE "Ya vam ne nravlyus"
    PERFORMER "Ilya Levinsky"
    ISRC GAPnG9800565
    INDEX 01 19:26:10
  TRACK 08 AUDIO
    TITLE "Pervoe svidaniye"
    PERFORMER "Sergei Leiferkus"
    ISRC GAPnG9800566
    INDEX 01 21:59:00
  TRACK 09 AUDIO
    TITLE "Uzh gasli v komnatakh ogni"
    PERFORMER "Sergei Leiferkus"
    ISRC GAPnG9800567
    INDEX 01 23:46:10
  TRACK 10 AUDIO
    TITLE "Serenada: O ditya"
    PERFORMER "Ilya Levinsky"
    ISRC GAPnG9800568
    INDEX 01 26:30:20
  TRACK 11 AUDIO
    TITLE "Serenade (Ou vas-tu, souffle d'aurore)"
    PERFORMER "Nina Rautio"
    ISRC GAPnG9800569
    INDEX 01 29:50:10
  TRACK 12 AUDIO
    TITLE "Deception"
    PERFORMER "Sergei Leiferkus"
    ISRC GAPnG9800570
    INDEX 01 31:45:50
  TRACK 13 AUDIO
    TITLE "Serenade (J'aime dans le rayon)"
    PERFORMER "Nina Rautio"
    ISRC GAPnG9800571
    INDEX 01 34:45:45
  TRACK 14 AUDIO
    TITLE "Qu'importe que l'hiver"
    PERFORMER "Sergei Leiferkus"
    ISRC GAPnG9800572
    INDEX 01 38:39:35
  TRACK 15 AUDIO
    TITLE "Les larmes"
    PERFORMER "Sergei Leiferkus"
    ISRC GAPnG9800573
    INDEX 01 41:22:55
  TRACK 16 AUDIO
    TITLE "Rondel"
    PERFORMER "Ilya Levinsky"
    ISRC GAPnG9800574
    INDEX 01 44:32:60
  TRACK 17 AUDIO
    TITLE "My sideli s toboy"
    PERFORMER "Sergei Leiferkus"
    ISRC GAPnG9800575
    INDEX 01 45:58:55
  TRACK 18 AUDIO
    TITLE "Noch, op. 73 No. 2"
    PERFORMER "Sergei Leiferkus"
    ISRC GAPnG9800576
    INDEX 00 48:44:44
    INDEX 01 48:44:45
  TRACK 19 AUDIO
    TITLE "V etu lunnuyu noch"
    PERFORMER "Nina Rautio"
    ISRC GAPnG9800577
    INDEX 01 52:03:50
  TRACK 20 AUDIO
    TITLE "Zakatilos solntse"
    PERFORMER "Sergei Leiferkus"
    ISRC GAPnG9800578
    INDEX 01 53:54:60
  TRACK 21 AUDIO
    TITLE "Sred mrachnikh dney"
    PERFORMER "Ilya Levinsky"
    ISRC GAPnG9800579
    INDEX 01 55:43:20
  TRACK 22 AUDIO
    TITLE "Snova kak prezhde odin"
    PERFORMER "Sergei Leiferkus"
    ISRC GAPnG9800580
    INDEX 01 57:34:20


Скачать торрент 1.17 ГБ


Download
Для скачивания .torrent файлов необходима регистрация
Сайт не распространяет и не хранит электронные версии произведений, а лишь предоставляет доступ к создаваемому пользователями каталогу ссылок на торрент-файлы, которые содержат только списки хеш-сумм

Страница 1 из 1

Ответить на тему

   Похожие торренты   Торрент 




cron