Регистрация ·  Логин: Пароль: Запомнить   · Забыли пароль?




Ответить на тему
Статистика раздачи
Размер: 237.2 МБ | Зарегистрирован: 10 мар 2018, 13:22 | .torrent скачан: 0 раз(а)
Сидеров: [ 2  | 0 байт/сек ]   Личеров: [ 1  | 0 байт/сек ]   DHT: [ 2 / 1 ]
Автор Сообщение

Модератор
Аватара пользователя

Стаж: 6 лет
Сообщения: 7870
Молдова

Сообщение 10 мар 2018, 13:22 

[Цитировать]

Ruggiero Leoncavallo - La Nuit de mai; Songs - Placido Domingo, Lang Lang, Orchestra del Teatro Comunale di Bologna, Alberto Veronesi

Жанр: Classical
Страна-производитель диска: Germany
Год издания диска: 2010
Издатель (лейбл): Deutsche Grammophon
Номер по каталогу: 00289 477 6633
Дата записи: 2007
Аудиокодек: FLAC
Тип рипа: image+.cue
Битрейт аудио: lossless
Продолжительность: 60:12
Источник: собственный рип
Наличие сканов в содержимом раздачи: да
Треклист:
Ruggiero Leoncavallo (1857-1919)
[1]-[12] La Nuit de mai
Symphonic poem for tenor and orchestra
Songs
[13] Aprile!
[14] C'è nel tuo sguardo
[15] Hymne à la Lyre
[16] La Chanson des yeux
[17] L'addio
Solo Piano Pieces
[18] Barcarola veneziana
[19] Valse mignonne
Исполнители:
Placido Domingo tenor
Lang Lang piano
Orchestra del Teatro Comunale di Bologna
Alberto Veronesi
conductor
Код:
Exact Audio Copy V1.0 beta 3 from 29. August 2011
EAC extraction logfile from 10. August 2012, 8:32
Plácido Domingo, Orchestra del Teatro Comunale di Bologna, Alberto Veronesi / Leoncavallo - La Nuit de mai
Used drive  : HL-DT-STDVDRAM GSA-4083N   Adapter: 1  ID: 0
Read mode               : Secure
Utilize accurate stream : Yes
Defeat audio cache      : Yes
Make use of C2 pointers : No
Read offset correction                      : 667
Overread into Lead-In and Lead-Out          : No
Fill up missing offset samples with silence : Yes
Delete leading and trailing silent blocks   : No
Null samples used in CRC calculations       : Yes
Used interface                              : Native Win32 interface for Win NT & 2000
Used output format              : User Defined Encoder
Selected bitrate                : 896 kBit/s
Quality                         : High
Add ID3 tag                     : No
Command line compressor         : C:\Program Files\Exact Audio Copy\Flac\flac.exe
Additional command line options : -V -8 %source%
TOC of the extracted CD
     Track |   Start  |  Length  | Start sector | End sector
    ---------------------------------------------------------
        1  |  0:00.00 |  4:19.10 |         0    |    19434
        2  |  4:19.10 |  1:56.30 |     19435    |    28164
        3  |  6:15.40 |  2:42.57 |     28165    |    40371
        4  |  8:58.22 |  2:22.43 |     40372    |    51064
        5  | 11:20.65 |  3:57.31 |     51065    |    68870
        6  | 15:18.21 |  3:36.32 |     68871    |    85102
        7  | 18:54.53 |  7:36.30 |     85103    |   119332
        8  | 26:31.08 |  3:09.46 |    119333    |   133553
        9  | 29:40.54 |  3:12.00 |    133554    |   147953
       10  | 32:52.54 |  2:49.60 |    147954    |   160688
       11  | 35:42.39 |  2:35.49 |    160689    |   172362
       12  | 38:18.13 |  2:30.67 |    172363    |   183679
       13  | 40:49.05 |  1:36.20 |    183680    |   190899
       14  | 42:25.25 |  2:12.07 |    190900    |   200806
       15  | 44:37.32 |  2:45.65 |    200807    |   213246
       16  | 47:23.22 |  2:43.65 |    213247    |   225536
       17  | 50:07.12 |  2:31.62 |    225537    |   236923
       18  | 52:38.74 |  2:22.59 |    236924    |   247632
       19  | 55:01.58 |  5:21.12 |    247633    |   271719
Range status and errors
Selected range
     Filename J:\Music\Leoncavallo - La Nuit de mai\Leoncavallo - La Nuit de mai.wav
     Peak level 100.0 %
     Extraction speed 4.2 X
     Range quality 100.0 %
     Test CRC BB1DF471
     Copy CRC BB1DF471
     Copy OK
No errors occurred
End of status report
==== Log checksum 42FCC59E6C5C915346397CFC4F72613C84EC2E3E1FB3DB436A63A28AF02CCB9C ====


Скачать торрент 237.2 МБ


Download
Для скачивания .torrent файлов необходима регистрация
Сайт не распространяет и не хранит электронные версии произведений, а лишь предоставляет доступ к создаваемому пользователями каталогу ссылок на торрент-файлы, которые содержат только списки хеш-сумм

Страница 1 из 1

Ответить на тему

   Похожие торренты   Торрент