Регистрация ·  Логин: Пароль: Запомнить   · Забыли пароль?




Ответить на тему
Статистика раздачи
Размер: 215.5 МБ | Зарегистрирован: 10 мар 2018, 13:22 | .torrent скачан: 0 раз(а)
Сидеров: [ 0  | 0 байт/сек ]   Личеров: [ 0  | 0 байт/сек ]   DHT: [ 0 / 0 ]
Автор Сообщение

Модератор
Аватара пользователя

Стаж: 6 лет
Сообщения: 7870
Молдова

Сообщение 10 мар 2018, 13:22 

[Цитировать]

Ernst Krenek - Reisebuch aus den österreichischen Alpen (Travelbook from the Austrian Alps) op.62 (1929)

Жанр: Vocal/Neo-romanticism
Страна-производитель диска: Germany
Год издания диска: 1993
Издатель (лейбл): CPO
Номер по каталогу: CPO 999 203-2
Аудиокодек: FLAC
Тип рипа: tracks+.cue
Битрейт аудио: lossless
Продолжительность: 56:21
Источник: собственный рип
Наличие сканов в содержимом раздачи: да (+либретто)
1 Motiv/Motive
2 Verkehr/Travel
3 Kloster in Den Alpen/Monastery in the Alps
4 Wetter/Weather
5 Traurige Stunde/Sad Hour
6 Friedhof im Gebirgsdorf/Cemetery in a Mountain Village
7 Regentag/Day of Rain
8 Unser Wein/Our Wine
9 Rückblick/Looking Back
10 Auf Und Ab/Up and Down
11 Alpenbewohner/Alpland Dwellers (Folkloristic Potpourri)
12 Politik/Politics
13 Gewitter/Thunderstorm
14 Heimweh/Nostalgia
15 Heißer Tag Am See/Hot Day at the Lake
16 Kleine Stadt in Den Südlichen Alpen/Small Town in the Southern Alps
17 Ausblick Nach Süden/Outlook Toward the South
18 Entscheidung/Decision
19 Heimkehr/Homecoming
20 Epilog/Epilogue
Исполнители:
Markus Köhler (Baritone)
Reinhard Schmiedel (Piano)
Код:
Exact Audio Copy V1.0 beta 1 from 15. November 2010
EAC extraction logfile from 22. October 2011, 9:00
Ernst Krenek / Reisebuch aus den Osterreichischen Alpen
Used drive  : MATSHITADVD-RAM UJ-860S   Adapter: 2  ID: 0
Read mode               : Secure
Utilize accurate stream : Yes
Defeat audio cache      : Yes
Make use of C2 pointers : No
Read offset correction                      : 102
Overread into Lead-In and Lead-Out          : No
Fill up missing offset samples with silence : Yes
Delete leading and trailing silent blocks   : No
Null samples used in CRC calculations       : Yes
Used interface                              : Native Win32 interface for Win NT & 2000
Gap handling                                : Appended to previous track
Used output format              : User Defined Encoder
Selected bitrate                : 128 kBit/s
Quality                         : High
Add ID3 tag                     : No
Command line compressor         : D:\Program Files\Exact Audio Copy\flac.exe
Additional command line options : -8 -V -T "ARTIST=%a" -T "TITLE=%t" -T "ALBUM=%g" -T "DATE=%y" -T "TRACKNUMBER=%n" -T "GENRE=%m" -T "COMMENT=EAC FLAC -8" %s
TOC of the extracted CD
     Track |   Start  |  Length  | Start sector | End sector
    ---------------------------------------------------------
        1  |  0:00.00 |  2:10.65 |         0    |     9814
        2  |  2:10.65 |  2:47.47 |      9815    |    22386
        3  |  4:58.37 |  2:48.40 |     22387    |    35026
        4  |  7:47.02 |  1:38.05 |     35027    |    42381
        5  |  9:25.07 |  2:52.00 |     42382    |    55281
        6  | 12:17.07 |  4:12.68 |     55282    |    74249
        7  | 16:30.00 |  2:02.25 |     74250    |    83424
        8  | 18:32.25 |  2:54.07 |     83425    |    96481
        9  | 21:26.32 |  2:18.45 |     96482    |   106876
       10  | 23:45.02 |  1:47.20 |    106877    |   114921
       11  | 25:32.22 |  3:07.53 |    114922    |   128999
       12  | 28:40.00 |  4:35.20 |    129000    |   149644
       13  | 33:15.20 |  2:51.15 |    149645    |   162484
       14  | 36:06.35 |  4:13.47 |    162485    |   181506
       15  | 40:20.07 |  2:59.68 |    181507    |   194999
       16  | 43:20.00 |  2:22.62 |    195000    |   205711
       17  | 45:42.62 |  2:57.20 |    205712    |   219006
       18  | 48:40.07 |  2:00.73 |    219007    |   228079
       19  | 50:41.05 |  1:52.12 |    228080    |   236491
       20  | 52:33.17 |  3:57.30 |    236492    |   254296
Track  1
     Filename C:\Documents and Settings\Admin\Рабочий стол\Reisebuch aus den Osterreichischen Alpen 2\01. Ernst Krenek – Motiv.wav
     Pre-gap length  0:00:02.00
     Peak level 42.2 %
     Extraction speed 0.7 X
     Track quality 100.0 %
     Test CRC B2BBE437
     Copy CRC B2BBE437
     Track not present in AccurateRip database
     Copy OK
Track  2
     Filename C:\Documents and Settings\Admin\Рабочий стол\Reisebuch aus den Osterreichischen Alpen 2\02. Ernst Krenek – Verkehr.wav
     Peak level 99.0 %
     Extraction speed 0.8 X
     Track quality 100.0 %
     Test CRC F6189315
     Copy CRC F6189315
     Track not present in AccurateRip database
     Copy OK
Track  3
     Filename C:\Documents and Settings\Admin\Рабочий стол\Reisebuch aus den Osterreichischen Alpen 2\03. Ernst Krenek – Kloster in Den Alpen.wav
     Peak level 73.7 %
     Extraction speed 0.8 X
     Track quality 100.0 %
     Test CRC 2EEA6C29
     Copy CRC 2EEA6C29
     Track not present in AccurateRip database
     Copy OK
Track  4
     Filename C:\Documents and Settings\Admin\Рабочий стол\Reisebuch aus den Osterreichischen Alpen 2\04. Ernst Krenek – Wetter.wav
     Peak level 85.3 %
     Extraction speed 0.8 X
     Track quality 100.0 %
     Test CRC 40B1C6F3
     Copy CRC 40B1C6F3
     Track not present in AccurateRip database
     Copy OK
Track  5
     Filename C:\Documents and Settings\Admin\Рабочий стол\Reisebuch aus den Osterreichischen Alpen 2\05. Ernst Krenek – Traurige Stunde.wav
     Peak level 100.0 %
     Extraction speed 0.8 X
     Track quality 99.9 %
     Test CRC A58B86C1
     Copy CRC A58B86C1
     Track not present in AccurateRip database
     Copy OK
Track  6
     Filename C:\Documents and Settings\Admin\Рабочий стол\Reisebuch aus den Osterreichischen Alpen 2\06. Ernst Krenek – Friedhof im Gebirgsdorf.wav
     Peak level 94.7 %
     Extraction speed 0.5 X
     Track quality 100.0 %
     Test CRC 156719FA
     Copy CRC 156719FA
     Track not present in AccurateRip database
     Copy OK
Track  7
     Filename C:\Documents and Settings\Admin\Рабочий стол\Reisebuch aus den Osterreichischen Alpen 2\07. Ernst Krenek – Regentag.wav
     Pre-gap length  0:00:04.97
     Peak level 25.2 %
     Extraction speed 0.6 X
     Track quality 100.0 %
     Test CRC 400AB230
     Copy CRC 400AB230
     Track not present in AccurateRip database
     Copy OK
Track  8
     Filename C:\Documents and Settings\Admin\Рабочий стол\Reisebuch aus den Osterreichischen Alpen 2\08. Ernst Krenek – Unser Wein.wav
     Peak level 51.8 %
     Extraction speed 0.6 X
     Track quality 100.0 %
     Test CRC 6BC0A3C1
     Copy CRC 6BC0A3C1
     Track not present in AccurateRip database
     Copy OK
Track  9
     Filename C:\Documents and Settings\Admin\Рабочий стол\Reisebuch aus den Osterreichischen Alpen 2\09. Ernst Krenek – Ruckblick.wav
     Peak level 56.5 %
     Extraction speed 0.6 X
     Track quality 100.0 %
     Test CRC 5998FF3E
     Copy CRC 5998FF3E
     Track not present in AccurateRip database
     Copy OK
Track 10
     Filename C:\Documents and Settings\Admin\Рабочий стол\Reisebuch aus den Osterreichischen Alpen 2\10. Ernst Krenek – Auf Und Ab.wav
     Peak level 62.1 %
     Extraction speed 0.5 X
     Track quality 99.9 %
     Test CRC B6718EF1
     Copy CRC B6718EF1
     Track not present in AccurateRip database
     Copy OK
Track 11
     Filename C:\Documents and Settings\Admin\Рабочий стол\Reisebuch aus den Osterreichischen Alpen 2\11. Ernst Krenek – Alpenbewohner.wav
     Peak level 80.8 %
     Extraction speed 0.7 X
     Track quality 100.0 %
     Test CRC 493CEFC1
     Copy CRC 493CEFC1
     Track not present in AccurateRip database
     Copy OK
Track 12
     Filename C:\Documents and Settings\Admin\Рабочий стол\Reisebuch aus den Osterreichischen Alpen 2\12. Ernst Krenek – Politik.wav
     Pre-gap length  0:00:06.17
     Peak level 82.0 %
     Extraction speed 0.7 X
     Track quality 99.9 %
     Test CRC 22D72C78
     Copy CRC 22D72C78
     Track not present in AccurateRip database
     Copy OK
Track 13
     Filename C:\Documents and Settings\Admin\Рабочий стол\Reisebuch aus den Osterreichischen Alpen 2\13. Ernst Krenek – Gewitter.wav
     Peak level 81.6 %
     Extraction speed 0.7 X
     Track quality 100.0 %
     Test CRC 79A77F2B
     Copy CRC 79A77F2B
     Track not present in AccurateRip database
     Copy OK
Track 14
     Filename C:\Documents and Settings\Admin\Рабочий стол\Reisebuch aus den Osterreichischen Alpen 2\14. Ernst Krenek – Heimweh.wav
     Peak level 74.4 %
     Extraction speed 0.8 X
     Track quality 100.0 %
     Test CRC B4C675B4
     Copy CRC B4C675B4
     Track not present in AccurateRip database
     Copy OK
Track 15
     Filename C:\Documents and Settings\Admin\Рабочий стол\Reisebuch aus den Osterreichischen Alpen 2\15. Ernst Krenek – Heisser Tag Am See.wav
     Peak level 29.6 %
     Extraction speed 0.8 X
     Track quality 100.0 %
     Test CRC 7B5F09DB
     Copy CRC 7B5F09DB
     Track not present in AccurateRip database
     Copy OK
Track 16
     Filename C:\Documents and Settings\Admin\Рабочий стол\Reisebuch aus den Osterreichischen Alpen 2\16. Ernst Krenek – Kleine Stadt in Den Sudlichen Alpen.wav
     Pre-gap length  0:00:12.24
     Peak level 75.8 %
     Extraction speed 0.7 X
     Track quality 100.0 %
     Test CRC 35977707
     Copy CRC 35977707
     Track not present in AccurateRip database
     Copy OK
Track 17
     Filename C:\Documents and Settings\Admin\Рабочий стол\Reisebuch aus den Osterreichischen Alpen 2\17. Ernst Krenek – Ausblick Nach Suden.wav
     Peak level 41.0 %
     Extraction speed 0.8 X
     Track quality 100.0 %
     Test CRC 450388E7
     Copy CRC 450388E7
     Track not present in AccurateRip database
     Copy OK
Track 18
     Filename C:\Documents and Settings\Admin\Рабочий стол\Reisebuch aus den Osterreichischen Alpen 2\18. Ernst Krenek – Entscheidung.wav
     Peak level 66.7 %
     Extraction speed 0.7 X
     Track quality 100.0 %
     Test CRC 37445581
     Copy CRC 37445581
     Track not present in AccurateRip database
     Copy OK
Track 19
     Filename C:\Documents and Settings\Admin\Рабочий стол\Reisebuch aus den Osterreichischen Alpen 2\19. Ernst Krenek – Heimkehr.wav
     Peak level 34.6 %
     Extraction speed 0.7 X
     Track quality 100.0 %
     Test CRC 1DFA83BA
     Copy CRC 1DFA83BA
     Track not present in AccurateRip database
     Copy OK
Track 20
     Filename C:\Documents and Settings\Admin\Рабочий стол\Reisebuch aus den Osterreichischen Alpen 2\20. Ernst Krenek – Epilog.wav
     Peak level 50.3 %
     Extraction speed 0.9 X
     Track quality 100.0 %
     Test CRC A8AA1FC7
     Copy CRC A8AA1FC7
     Track not present in AccurateRip database
     Copy OK
None of the tracks are present in the AccurateRip database
No errors occurred
End of status report
==== Log checksum D9E0B46D209FD0D987C9D0E117EB067450C4B56F713C966544E2DB11A47E3442 ====
Код:
REM GENRE Classical
REM DATE 1993
REM DISCID 100D3E14
REM COMMENT "ExactAudioCopy v1.0b1"
PERFORMER "Ernst Krenek"
TITLE "Reisebuch aus den Osterreichischen Alpen"
FILE "01. Ernst Krenek – Motiv.wav" WAVE
  TRACK 01 AUDIO
    TITLE "Motiv"
    PERFORMER "Ernst Krenek"
    INDEX 01 00:00:00
FILE "02. Ernst Krenek – Verkehr.wav" WAVE
  TRACK 02 AUDIO
    TITLE "Verkehr"
    PERFORMER "Ernst Krenek"
    INDEX 01 00:00:00
FILE "03. Ernst Krenek – Kloster in Den Alpen.wav" WAVE
  TRACK 03 AUDIO
    TITLE "Kloster in Den Alpen"
    PERFORMER "Ernst Krenek"
    INDEX 01 00:00:00
FILE "04. Ernst Krenek – Wetter.wav" WAVE
  TRACK 04 AUDIO
    TITLE "Wetter"
    PERFORMER "Ernst Krenek"
    INDEX 01 00:00:00
FILE "05. Ernst Krenek – Traurige Stunde.wav" WAVE
  TRACK 05 AUDIO
    TITLE "Traurige Stunde"
    PERFORMER "Ernst Krenek"
    INDEX 01 00:00:00
FILE "06. Ernst Krenek – Friedhof im Gebirgsdorf.wav" WAVE
  TRACK 06 AUDIO
    TITLE "Friedhof im Gebirgsdorf"
    PERFORMER "Ernst Krenek"
    INDEX 01 00:00:00
  TRACK 07 AUDIO
    TITLE "Regentag"
    PERFORMER "Ernst Krenek"
    INDEX 00 04:07:70
FILE "07. Ernst Krenek – Regentag.wav" WAVE
    INDEX 01 00:00:00
FILE "08. Ernst Krenek – Unser Wein.wav" WAVE
  TRACK 08 AUDIO
    TITLE "Unser Wein"
    PERFORMER "Ernst Krenek"
    INDEX 01 00:00:00
FILE "09. Ernst Krenek – Ruckblick.wav" WAVE
  TRACK 09 AUDIO
    TITLE "Ruckblick"
    PERFORMER "Ernst Krenek"
    INDEX 01 00:00:00
FILE "10. Ernst Krenek – Auf Und Ab.wav" WAVE
  TRACK 10 AUDIO
    TITLE "Auf Und Ab"
    PERFORMER "Ernst Krenek"
    INDEX 01 00:00:00
FILE "11. Ernst Krenek – Alpenbewohner.wav" WAVE
  TRACK 11 AUDIO
    TITLE "Alpenbewohner"
    PERFORMER "Ernst Krenek"
    INDEX 01 00:00:00
  TRACK 12 AUDIO
    TITLE "Politik"
    PERFORMER "Ernst Krenek"
    INDEX 00 03:01:40
FILE "12. Ernst Krenek – Politik.wav" WAVE
    INDEX 01 00:00:00
FILE "13. Ernst Krenek – Gewitter.wav" WAVE
  TRACK 13 AUDIO
    TITLE "Gewitter"
    PERFORMER "Ernst Krenek"
    INDEX 01 00:00:00
FILE "14. Ernst Krenek – Heimweh.wav" WAVE
  TRACK 14 AUDIO
    TITLE "Heimweh"
    PERFORMER "Ernst Krenek"
    INDEX 01 00:00:00
FILE "15. Ernst Krenek – Heisser Tag Am See.wav" WAVE
  TRACK 15 AUDIO
    TITLE "Heisser Tag Am See"
    PERFORMER "Ernst Krenek"
    INDEX 01 00:00:00
  TRACK 16 AUDIO
    TITLE "Kleine Stadt in Den Sudlichen Alpen"
    PERFORMER "Ernst Krenek"
    INDEX 00 02:47:50
FILE "16. Ernst Krenek – Kleine Stadt in Den Sudlichen Alpen.wav" WAVE
    INDEX 01 00:00:00
FILE "17. Ernst Krenek – Ausblick Nach Suden.wav" WAVE
  TRACK 17 AUDIO
    TITLE "Ausblick Nach Suden"
    PERFORMER "Ernst Krenek"
    INDEX 01 00:00:00
FILE "18. Ernst Krenek – Entscheidung.wav" WAVE
  TRACK 18 AUDIO
    TITLE "Entscheidung"
    PERFORMER "Ernst Krenek"
    INDEX 01 00:00:00
FILE "19. Ernst Krenek – Heimkehr.wav" WAVE
  TRACK 19 AUDIO
    TITLE "Heimkehr"
    PERFORMER "Ernst Krenek"
    INDEX 01 00:00:00
FILE "20. Ernst Krenek – Epilog.wav" WAVE
  TRACK 20 AUDIO
    TITLE "Epilog"
    PERFORMER "Ernst Krenek"
    INDEX 01 00:00:00
"Ich reise aus, mein Heimat zu entdecken" On this stirring note begins Ernst Krenek's Reisebuch aus den österreichischen Alpen. It sounds confident and hearty but this is no Romantic hero striding into the world. Unglaube gegen uns selbst ist zuviel in uns verwurzelt (lack of faith in ourselves is deeply rooted). This song cycle is, no less, a parable for modern times, when the idea of identity is constantly being challenged by change. Like Hanns Eisler's Hollywood Liederbuch, Krenek's Reisebuch is one of the milestones of 20th century song.
Not many years previously, the Hapsburg Empire had collapsed. Previously Vienna had been the capital of a culturally diverse, polyglot nation. Suddenly it was a severed rump of German speakers, who weren't German. So Krenek set off into the mountains to make sense of what might be the Austrian soul. In the second song, Verkehr, Krenek makes it clear he's dealing with modern conditions. He travels by electric train, and then a bus. Dangerously steep inclines, teetering on precipices. Will the machines survive? Then he visits a monastery, where the monks aren't Technik Sklaven, but live quietly, with their ancient library.
In the mountains, life is brutally difficult. Steep slopes, dark valleys, poor soil. The weather's treacherous. Sudden storms blow up, even in summer. It's always raining. Wetter and Regentag, relentless pounding motifs, echoing the grim reality of life for the locals. As Krenek notes, the dead are exhumed after 10 years because the land's too precious. Their remains are put on display for gawping visitors. Suddenly you realize just how much a tourist Schubert was. He liked the scenery, but was, essentially, an outsider on holiday. Krenek constantly refers to the contrast between sojourners and locals, those who have to live with the consequences of change. and those who can run away.
Hence the "modern" images that keep recurring, and sub themes of anomie and disorientation. Musically, Krenelk uses jerky, angular forms that break up the seamlessness of the world he's describing, because it's on the verge of disintegration.
Mountain folk need tourists because they're desperately poor. But tourists bring irremediable change.Alpenbewohner is a remarkable song, where the locals look sullenly at the wilden Nomaden who descend upon them, speaking oddly "although in German", their motorcycles tearing up the silence, vulgar because they have money. But what do the locals want? More tourists, preferably English, for whom there must be English churches and 18 hole golf courses, because they can't take Austria for what it is. Look at the scars caused by ski slopes in this photo. Golf courses are even more disastrous to the fragile alpine environment. The rich Germans disrupt the Austrian stillness with their vulgarity and motorbikes, but the locals are so poor they have to sell out to the tourists. Krenek didn't know, in 1929, how prophetic his observations would prove..
Krenek follows this song with Politik. It explicitly refers to the First World War and the sufferings it brought to Austria, "Look to the West" he says "where a free people live on free mountains". It's Switzerland, not Bavaria, a small self-contained country that values neutrality. Yet later, Krenek thinks of Italy but knows that "a thistle transplanted in a lovely garden will not become a rose".
Again and again, images of gentle somnolence in the music are shattered by outbursts. The explosive Gewitter (Thunderstorm) isn't merely descriptive, but emphasizes sudden upheaval, from which there's no escape. So Krenek goes back to Vienna (on a schnelle Zug) Huge swelling crescendo on the words Liebes Vaterland. But it isn't just the mountains he's referring to, but his identity as a Viennese.
Krenek had just had a wild success with Jonny Spielt Auf, with the black jazz saxophonist. "Degenerate"! screamed critics who wanted time turned back. So Krenek goes to the mountains, the "pure source" where people still sang folk songs and lived primeval lives. Significantly, Krenek relates to Schubert, not Mahler, Wolf or Mozart. Intriguingly, the song Keenek dedicates to Schubert is Unser Wein. It's a gay,. lilting melody, but the punchline is that Austrian wine is "valued only by those who know to seek it out". In 1929, Schubert wasn't quite as ubiquitous as he is today. Perhaps Krenek's hinting at deeper levels in Schubert, which we're familiar with now, but in those days, Schubert's image was prettified through operettas like Blossom Time.
Perhaps Krenek's figuring out who he is, as a composer living in modern times, troubled by constant, threatening change. Back home, he comes across a strange, sleepy village in the suburbs. There's a motto written above a doorway. "Ich lebe, und weiss nicht wie lang. Ich sterbe, und weiss nicht, wann. Ich geh', und weiss nicht, wohin., mich wundert's dass ich noch Frolich bin." Suddenly, Krenek (who wrote the text as well as the music) find what might be the key: accepting that you'll never know the answers. Accepting that life's uncertain, yet making the most of it. Krenek's Reisebuch aus den österreichischen Alpen really is a parable for modern times.


Скачать торрент 215.5 МБ


Download
Для скачивания .torrent файлов необходима регистрация
Сайт не распространяет и не хранит электронные версии произведений, а лишь предоставляет доступ к создаваемому пользователями каталогу ссылок на торрент-файлы, которые содержат только списки хеш-сумм

Страница 1 из 1

Ответить на тему

   Похожие торренты   Торрент 




cron