Регистрация ·  Логин: Пароль: Запомнить   · Забыли пароль?




Ответить на тему
Статистика раздачи
Размер: 216.31 МБ | Зарегистрирован: 10 мар 2018, 13:22 | .torrent скачан: 0 раз(а)
Сидеров: [ 0  | 0 байт/сек ]   Личеров: [ 0  | 0 байт/сек ]   DHT: [ 0 / 0 ]
Автор Сообщение

Модератор
Аватара пользователя

Стаж: 6 лет
Сообщения: 7870
Молдова

Сообщение 10 мар 2018, 13:22 

[Цитировать]

GOUNOD: Les Sept Paroles de Notre Segneur Jesus-Christ sur la Croix; FRANCK: Sept Paroles du Christ sur la Croix

Жанр: Classical
Год издания диска: 2010
Издатель (лейбл): Mirare
Аудиокодек: FLAC
Тип рипа: tracks+.cue
Битрейт аудио: lossless
Продолжительность: 62 минуты
Источник: собственный рип
Наличие сканов в содержимом раздачи: только треклист
Треклист:
Charles GOUNOD (1818 - 1893)
Les Sept Paroles de Notre Segneur Jésus-Christ sur la Croix (transcription deJoris Lejeune)
1 Prologue, O vos omnes
2 Parole 1, Pater, dimitte illis
3 Parole 2, Hodie mecum eris in paradiso
4 Parole 3, Mulier, ecce filius tuus
5 Parole 4, Deus meus, ut quid dereliquisti me
6 Parole 5, Sitio
7 Parole 6, Consummatum est
8 Parole 7, Pater, in manus taus commendo spiritum meum

Cesar FRANCK (1822 - 1890)
Sept Paroles du Christ sur la Croix
9 Prologue, Luc XXIII, 28, Grave, Moderato
10 I. Matthieu XXVII, 39 - Luc XXIII, 34, Allegro
11 II. Luc XXIII, 39, 42-43
12 III. Jean XIX, 26,27
13 IV. Matthieu XXVII, 45-46 - Marc XV, 33-34,Adagio
14 V. Jean XIX, 28
15 VI. Jean XIX, 29-30, Modere
16 VII. Luc XXIII, 46, Adagio
Исполнители:
Ensemble Vocal de Lausanne / Michel Corboz:
Sophie Graf (soprano);
Valérie Bonnard (alto);
Valerio Contaldo, Mathias Reusser (tenors);
Fabrice Hayoz (baritone);
Luc Aeschlimann (cello);
Laura Ermaxora (harp);
Marcelo Giannini (organ);
Код:
Exact Audio Copy V0.99 prebeta 5 from 4. May 2009
EAC extraction logfile from 25. January 2011, 18:21
Franck - Gounod / Sept Paroles du Christ sur la Croux
Used drive  : Optiarc DVD RW AD-7241S   Adapter: 5  ID: 0
Read mode               : Secure
Utilize accurate stream : Yes
Defeat audio cache      : Yes
Make use of C2 pointers : No
Read offset correction                      : 48
Overread into Lead-In and Lead-Out          : No
Fill up missing offset samples with silence : Yes
Delete leading and trailing silent blocks   : No
Null samples used in CRC calculations       : Yes
Used interface                              : Native Win32 interface for Win NT & 2000
Gap handling                                : Appended to previous track
Used output format              : User Defined Encoder
Selected bitrate                : 768 kBit/s
Quality                         : High
Add ID3 tag                     : No
Command line compressor         : C:\Program Files\Exact Audio Copy\Flac\flac.exe
Additional command line options : -8 -V -T "ARTIST=%a" -T "TITLE=%t" -T "ALBUM=%g" -T "DATE=%y" -T "TRACKNUMBER=%n" -T "GENRE=%m" -T "COMMENT=EAC FLAC -8" %s
TOC of the extracted CD
     Track |   Start  |  Length  | Start sector | End sector
    ---------------------------------------------------------
        1  |  0:00.00 |  4:46.06 |         0    |    21455
        2  |  4:46.06 |  6:30.63 |     21456    |    50768
        3  | 11:16.69 |  3:58.13 |     50769    |    68631
        4  | 15:15.07 |  7:16.02 |     68632    |   101333
        5  | 22:31.09 |  2:58.43 |    101334    |   114726
        6  | 25:29.52 |  7:49.60 |    114727    |   149961
        7  | 33:19.37 |  6:09.27 |    149962    |   177663
        8  | 39:28.64 |  4:15.17 |    177664    |   196805
        9  | 43:44.06 |  3:31.25 |    196806    |   212655
       10  | 47:15.31 |  1:43.38 |    212656    |   220418
       11  | 48:58.69 |  2:18.11 |    220419    |   230779
       12  | 51:17.05 |  2:20.05 |    230780    |   241284
       13  | 53:37.10 |  3:07.70 |    241285    |   255379
       14  | 56:45.05 |  1:24.51 |    255380    |   261730
       15  | 58:09.56 |  2:02.35 |    261731    |   270915
       16  | 60:12.16 |  1:54.69 |    270916    |   279534
Track  1
     Filename E:\Раздача\образы музыки на раздачу\Franck - Gounod 2009\01. Franck - Gounod – Prologue, O vos omnes.wav
     Pre-gap length  0:00:02.00
     Peak level 28.6 %
     Track quality 100.0 %
     Test CRC B2129677
     Copy CRC B2129677
     Accurately ripped (confidence 1)  [ADF4282D]
     Copy OK
Track  2
     Filename E:\Раздача\образы музыки на раздачу\Franck - Gounod 2009\02. Franck - Gounod – Parole 1, Pater, dimitte illis.wav
     Peak level 93.4 %
     Track quality 99.9 %
     Test CRC EB9F526D
     Copy CRC EB9F526D
     Accurately ripped (confidence 1)  [D46F2356]
     Copy OK
Track  3
     Filename E:\Раздача\образы музыки на раздачу\Franck - Gounod 2009\03. Franck - Gounod – Parole 2, Hodie mecum eris in paradiso.wav
     Peak level 33.3 %
     Track quality 100.0 %
     Test CRC 533572B2
     Copy CRC 533572B2
     Accurately ripped (confidence 1)  [B75C6590]
     Copy OK
Track  4
     Filename E:\Раздача\образы музыки на раздачу\Franck - Gounod 2009\04. Franck - Gounod – Parole 3, Mulier, ecce filius tuus.wav
     Peak level 42.1 %
     Track quality 100.0 %
     Test CRC 9E5FA1C8
     Copy CRC 9E5FA1C8
     Accurately ripped (confidence 1)  [05772521]
     Copy OK
Track  5
     Filename E:\Раздача\образы музыки на раздачу\Franck - Gounod 2009\05. Franck - Gounod – Parole 4, Deus meus, ut quid dereliquisti me.wav
     Peak level 26.7 %
     Track quality 100.0 %
     Test CRC A898196E
     Copy CRC A898196E
     Accurately ripped (confidence 1)  [677BD676]
     Copy OK
Track  6
     Filename E:\Раздача\образы музыки на раздачу\Franck - Gounod 2009\06. Franck - Gounod – Parole 5, Sitio.wav
     Peak level 55.8 %
     Track quality 100.0 %
     Test CRC 80683BB5
     Copy CRC 80683BB5
     Accurately ripped (confidence 1)  [42F7E6AC]
     Copy OK
Track  7
     Filename E:\Раздача\образы музыки на раздачу\Franck - Gounod 2009\07. Franck - Gounod – Parole 6, Consummatum est.wav
     Peak level 39.7 %
     Track quality 100.0 %
     Test CRC ECE6BDB7
     Copy CRC ECE6BDB7
     Accurately ripped (confidence 1)  [8EA94E89]
     Copy OK
Track  8
     Filename E:\Раздача\образы музыки на раздачу\Franck - Gounod 2009\08. Franck - Gounod – Parole 7, Pater, in manus taus commendo spiritum meum.wav
     Peak level 45.9 %
     Track quality 100.0 %
     Test CRC 2FB9860A
     Copy CRC 2FB9860A
     Accurately ripped (confidence 1)  [8A14F63F]
     Copy OK
Track  9
     Filename E:\Раздача\образы музыки на раздачу\Franck - Gounod 2009\09. Franck - Gounod – Prologue, Luc XXIII, 28, Grave, Moderato.wav
     Peak level 84.5 %
     Track quality 100.0 %
     Test CRC 0F2E7BA9
     Copy CRC 0F2E7BA9
     Accurately ripped (confidence 1)  [15FE9515]
     Copy OK
Track 10
     Filename E:\Раздача\образы музыки на раздачу\Franck - Gounod 2009\10. Franck - Gounod – I. Matthieu XXVII, 39 - Luc XXIII, 34, Allegro.wav
     Peak level 94.9 %
     Track quality 100.0 %
     Test CRC FD821F0D
     Copy CRC FD821F0D
     Accurately ripped (confidence 1)  [C6232960]
     Copy OK
Track 11
     Filename E:\Раздача\образы музыки на раздачу\Franck - Gounod 2009\11. Franck - Gounod – II. Luc XXIII, 39, 42-43.wav
     Peak level 48.3 %
     Track quality 99.9 %
     Test CRC A48A5FB2
     Copy CRC A48A5FB2
     Accurately ripped (confidence 1)  [1CAD3FCE]
     Copy OK
Track 12
     Filename E:\Раздача\образы музыки на раздачу\Franck - Gounod 2009\12. Franck - Gounod – III. Jean XIX, 26,27.wav
     Peak level 36.2 %
     Track quality 100.0 %
     Test CRC CDC5129A
     Copy CRC CDC5129A
     Accurately ripped (confidence 1)  [AE149EEC]
     Copy OK
Track 13
     Filename E:\Раздача\образы музыки на раздачу\Franck - Gounod 2009\13. Franck - Gounod – IV. Matthieu XXVII, 45-46 - Marc XV, 33-34, Adagio.wav
     Peak level 80.1 %
     Track quality 99.9 %
     Test CRC C3E06210
     Copy CRC C3E06210
     Accurately ripped (confidence 1)  [A306F72B]
     Copy OK
Track 14
     Filename E:\Раздача\образы музыки на раздачу\Franck - Gounod 2009\14. Franck - Gounod – V. Jean XIX, 28.wav
     Peak level 23.3 %
     Track quality 99.8 %
     Test CRC DB771CC3
     Copy CRC DB771CC3
     Accurately ripped (confidence 1)  [C0391D68]
     Copy OK
Track 15
     Filename E:\Раздача\образы музыки на раздачу\Franck - Gounod 2009\15. Franck - Gounod – VI. Jean XIX, 29-30, Modere.wav
     Peak level 97.4 %
     Track quality 100.0 %
     Test CRC 8ED48879
     Copy CRC 8ED48879
     Accurately ripped (confidence 1)  [57B78E0E]
     Copy OK
Track 16
     Filename E:\Раздача\образы музыки на раздачу\Franck - Gounod 2009\16. Franck - Gounod – VII. Luc XXIII, 46, Adagio.wav
     Peak level 48.2 %
     Track quality 99.9 %
     Test CRC A447301F
     Copy CRC A447301F
     Accurately ripped (confidence 1)  [21D86B07]
     Copy OK
All tracks accurately ripped
No errors occurred
End of status report
Код:
REM GENRE Classical
REM DATE 2009
REM DISCID E10E8F10
REM COMMENT "ExactAudioCopy v0.99pb5"
PERFORMER "Franck - Gounod"
TITLE "Sept Paroles du Christ sur la Croux"
FILE "01. Franck - Gounod – Prologue, O vos omnes.wav" WAVE
  TRACK 01 AUDIO
    TITLE "Prologue, O vos omnes"
    PERFORMER "Franck - Gounod"
    INDEX 01 00:00:00
FILE "02. Franck - Gounod – Parole 1, Pater, dimitte illis.wav" WAVE
  TRACK 02 AUDIO
    TITLE "Parole 1, Pater, dimitte illis"
    PERFORMER "Franck - Gounod"
    INDEX 01 00:00:00
FILE "03. Franck - Gounod – Parole 2, Hodie mecum eris in paradiso.wav" WAVE
  TRACK 03 AUDIO
    TITLE "Parole 2, Hodie mecum eris in paradiso"
    PERFORMER "Franck - Gounod"
    INDEX 01 00:00:00
FILE "04. Franck - Gounod – Parole 3, Mulier, ecce filius tuus.wav" WAVE
  TRACK 04 AUDIO
    TITLE "Parole 3, Mulier, ecce filius tuus"
    PERFORMER "Franck - Gounod"
    INDEX 01 00:00:00
FILE "05. Franck - Gounod – Parole 4, Deus meus, ut quid dereliquisti me.wav" WAVE
  TRACK 05 AUDIO
    TITLE "Parole 4, Deus meus, ut quid dereliquisti me"
    PERFORMER "Franck - Gounod"
    INDEX 01 00:00:00
FILE "06. Franck - Gounod – Parole 5, Sitio.wav" WAVE
  TRACK 06 AUDIO
    TITLE "Parole 5, Sitio"
    PERFORMER "Franck - Gounod"
    INDEX 01 00:00:00
FILE "07. Franck - Gounod – Parole 6, Consummatum est.wav" WAVE
  TRACK 07 AUDIO
    TITLE "Parole 6, Consummatum est"
    PERFORMER "Franck - Gounod"
    INDEX 01 00:00:00
FILE "08. Franck - Gounod – Parole 7, Pater, in manus taus commendo spiritum meum.wav" WAVE
  TRACK 08 AUDIO
    TITLE "Parole 7, Pater, in manus taus commendo spiritum meum"
    PERFORMER "Franck - Gounod"
    INDEX 01 00:00:00
FILE "09. Franck - Gounod – Prologue, Luc XXIII, 28, Grave, Moderato.wav" WAVE
  TRACK 09 AUDIO
    TITLE "Prologue, Luc XXIII, 28, Grave, Moderato"
    PERFORMER "Franck - Gounod"
    INDEX 01 00:00:00
FILE "10. Franck - Gounod – I. Matthieu XXVII, 39 - Luc XXIII, 34, Allegro.wav" WAVE
  TRACK 10 AUDIO
    TITLE "I. Matthieu XXVII, 39 - Luc XXIII, 34, Allegro"
    PERFORMER "Franck - Gounod"
    INDEX 01 00:00:00
FILE "11. Franck - Gounod – II. Luc XXIII, 39, 42-43.wav" WAVE
  TRACK 11 AUDIO
    TITLE "II. Luc XXIII, 39, 42-43"
    PERFORMER "Franck - Gounod"
    INDEX 01 00:00:00
FILE "12. Franck - Gounod – III. Jean XIX, 26,27.wav" WAVE
  TRACK 12 AUDIO
    TITLE "III. Jean XIX, 26,27"
    PERFORMER "Franck - Gounod"
    INDEX 01 00:00:00
FILE "13. Franck - Gounod – IV. Matthieu XXVII, 45-46 - Marc XV, 33-34, Adagio.wav" WAVE
  TRACK 13 AUDIO
    TITLE "IV. Matthieu XXVII, 45-46 - Marc XV, 33-34, Adagio"
    PERFORMER "Franck - Gounod"
    INDEX 01 00:00:00
FILE "14. Franck - Gounod – V. Jean XIX, 28.wav" WAVE
  TRACK 14 AUDIO
    TITLE "V. Jean XIX, 28"
    PERFORMER "Franck - Gounod"
    INDEX 01 00:00:00
FILE "15. Franck - Gounod – VI. Jean XIX, 29-30, Modere.wav" WAVE
  TRACK 15 AUDIO
    TITLE "VI. Jean XIX, 29-30, Modere"
    PERFORMER "Franck - Gounod"
    INDEX 01 00:00:00
FILE "16. Franck - Gounod – VII. Luc XXIII, 46, Adagio.wav" WAVE
  TRACK 16 AUDIO
    TITLE "VII. Luc XXIII, 46, Adagio"
    PERFORMER "Franck - Gounod"
    INDEX 01 00:00:00
Внимание! Прикрепил новый торент файл с изменёнными в лучшую сторону названиями файлов.
Старый торент файл так же находится на раздаче.


Скачать торрент 216.31 МБ


Download
Для скачивания .torrent файлов необходима регистрация
Сайт не распространяет и не хранит электронные версии произведений, а лишь предоставляет доступ к создаваемому пользователями каталогу ссылок на торрент-файлы, которые содержат только списки хеш-сумм

Страница 1 из 1

Ответить на тему

   Похожие торренты   Торрент 




cron