Регистрация ·  Логин: Пароль: Запомнить   · Забыли пароль?




Ответить на тему
Статистика раздачи
Размер: 252.8 МБ | Зарегистрирован: 10 мар 2018, 13:22 | .torrent скачан: 0 раз(а)
Сидеров: [ 0  | 0 байт/сек ]   Личеров: [ 0  | 0 байт/сек ]   DHT: [ 0 / 0 ]
Автор Сообщение

Модератор
Аватара пользователя

Стаж: 6 лет
Сообщения: 7870
Молдова

Сообщение 10 мар 2018, 13:22 

[Цитировать]

Josquin Desprez - Missa de Beata Virgine, Motets a la Vierge / A Sei Voci

Жанр: Classical / Vocal
Год выпуска диска: 1995
Производитель диска: Astrée - Auvidis, France
Аудио кодек: FLAC
Тип рипа: tracks+.cue
Битрейт аудио: lossless
Продолжительность: 59:14
Трэклист:
MISSA DE BEATA VIRGINE
Introit
01. Salve sancta (02:25)
Kyrie
02. Kyrie eleison (00:44)
03. Christe eleison (01:07)
04. Kyrie eleison II (01:26)
Gloria
05. Gloria in excelcis Deo, et in terra pax (03:29)
06. Qui tollis peccata mundi (03:07)
07. Cum Sancto Spiritu in gloria Dei Patris (01:11)
Credo
08. Patrem omnipotentem (02:38)
09. Crucifixus etiam pro nobis sub Pontio (01:26)
10. Et in Spiritum Sanctum (02:16)
Offertoire
11. Ave Maria gratia (02:34)
Sanctus
12. Sanctus (01:39)
13. Pleni sunt caeli (01:20)
14. Hosanna in excelsis (00:49)
Benedictus
15. Benedictus qui venit in nomine Domini (01:05)
16. Hosanna in excelsis (00:50)
17. Agnus Dei I (01:27)
18. Agnus Dei II (01:45)
19. Agnus Dei III (01:47)
MOTETS À LA VIERGE
O Virgo Prudentissima
20. Prima pars (02:58)
21. Secunda pars (02:32)
Stabat Mater Dolorosa
22. Prima pars (03:18)
23. Secunda pars (03:21)
Ave Maria
24. Ave Maria (04:37)
Inviolata, Integra et Casta es Maria
25. Prima pars (01:59)
26. Secunda pars (01:20)
27. Tertia pars (01:30)
Tu Solus
28. Prima pars (02:32)
29. Secunda pars (01:36)
A SEI VOCI
Catherine PADAUT, soprane
Catherine JOUSSELIN, mezzo-soprane
Raoul LE CHENADEC, haute-contre
Jean-Louis COMORETTO, haute-contre
Thierry BRÉHU, ténor
Jean-Marie PUISSANT, ténor
Jean-François CHIAMA, ténor
James GOWINGS, baryton
Jean-Louis GEORGEL, baryton
Yves BERGÉ, basse
Bernard FABRE-GARRUS, basse
Direction : Bernard FABRE·GARRUS
Код:
Exact Audio Copy V0.99 prebeta 4 from 23. January 2008
EAC extraction logfile from 22. October 2009, 22:51
Josquin Desprez / Missa de Beata Virgine,Motets a la Vierge by A Sei Voci
Used drive  : PIONEER DVD-ROM DVD-121   Adapter: 0  ID: 1
Read mode               : Secure
Utilize accurate stream : Yes
Defeat audio cache      : Yes
Make use of C2 pointers : No
Read offset correction                      : 102
Overread into Lead-In and Lead-Out          : No
Fill up missing offset samples with silence : Yes
Delete leading and trailing silent blocks   : No
Null samples used in CRC calculations       : Yes
Used interface                              : Installed external ASPI interface
Gap handling                                : Appended to previous track
Used output format              : User Defined Encoder
Selected bitrate                : 1024 kBit/s
Quality                         : High
Add ID3 tag                     : No
Command line compressor         : C:\Flac\flac.exe
Additional command line options : -5 -V -T "ARTIST=%a" -T "TITLE=%t" -T "ALBUM=%g" -T "DATE=%y" -T "TRACKNUMBER=%n" -T "TOTALTRACKS=%x" -T "GENRE=%m" -T "COMMENT=%e" %s -o %d
TOC of the extracted CD
     Track |   Start  |  Length  | Start sector | End sector
    ---------------------------------------------------------
        1  |  0:00.33 |  2:25.20 |        33    |    10927
        2  |  2:25.53 |  0:44.45 |     10928    |    14272
        3  |  3:10.23 |  1:07.10 |     14273    |    19307
        4  |  4:17.33 |  1:26.02 |     19308    |    25759
        5  |  5:43.35 |  3:29.00 |     25760    |    41434
        6  |  9:12.35 |  3:07.23 |     41435    |    55482
        7  | 12:19.58 |  1:11.42 |     55483    |    60849
        8  | 13:31.25 |  2:38.45 |     60850    |    72744
        9  | 16:09.70 |  1:26.35 |     72745    |    79229
       10  | 17:36.30 |  2:16.10 |     79230    |    89439
       11  | 19:52.40 |  2:34.15 |     89440    |   101004
       12  | 22:26.55 |  1:39.10 |    101005    |   108439
       13  | 24:05.65 |  1:20.53 |    108440    |   114492
       14  | 25:26.43 |  0:49.47 |    114493    |   118214
       15  | 26:16.15 |  1:05.53 |    118215    |   123142
       16  | 27:21.68 |  0:50.65 |    123143    |   126957
       17  | 28:12.58 |  1:27.40 |    126958    |   133522
       18  | 29:40.23 |  1:45.00 |    133523    |   141397
       19  | 31:25.23 |  1:47.65 |    141398    |   149487
       20  | 33:13.13 |  2:58.32 |    149488    |   162869
       21  | 36:11.45 |  2:32.53 |    162870    |   174322
       22  | 38:44.23 |  3:18.12 |    174323    |   189184
       23  | 42:02.35 |  3:21.68 |    189185    |   204327
       24  | 45:24.28 |  4:37.30 |    204328    |   225132
       25  | 50:01.58 |  1:59.60 |    225133    |   234117
       26  | 52:01.43 |  1:20.40 |    234118    |   240157
       27  | 53:22.08 |  1:30.10 |    240158    |   246917
       28  | 54:52.18 |  2:32.15 |    246918    |   258332
       29  | 57:24.33 |  1:36.05 |    258333    |   265537
Track  1
     Filename D:\Music\Josquin Desprez\[1995] Missa de Beata Virgine,Motets a la Vierge by A Sei Voci\01 - Salve sancta - Introit.wav
     Pre-gap length  0:00:02.33
     Peak level 24.2 %
     Track quality 100.0 %
     Test CRC 1DF83C2A
     Copy CRC 1DF83C2A
     Accurately ripped (confidence 6)  [154613DB]
     Copy OK
Track  2
     Filename D:\Music\Josquin Desprez\[1995] Missa de Beata Virgine,Motets a la Vierge by A Sei Voci\02 - Kyrie eleison - Kyrie.wav
     Peak level 56.1 %
     Track quality 100.0 %
     Test CRC 0FE35ACA
     Copy CRC 0FE35ACA
     Accurately ripped (confidence 5)  [325A41D5]
     Copy OK
Track  3
     Filename D:\Music\Josquin Desprez\[1995] Missa de Beata Virgine,Motets a la Vierge by A Sei Voci\03 - Christe eleison - Kyrie.wav
     Peak level 19.7 %
     Track quality 100.0 %
     Test CRC 747E2ED9
     Copy CRC 747E2ED9
     Accurately ripped (confidence 6)  [F1605309]
     Copy OK
Track  4
     Filename D:\Music\Josquin Desprez\[1995] Missa de Beata Virgine,Motets a la Vierge by A Sei Voci\04 - Kyrie eleison II - Kyrie.wav
     Peak level 73.1 %
     Track quality 100.0 %
     Test CRC A26BEC1A
     Copy CRC A26BEC1A
     Accurately ripped (confidence 6)  [3D6836C4]
     Copy OK
Track  5
     Filename D:\Music\Josquin Desprez\[1995] Missa de Beata Virgine,Motets a la Vierge by A Sei Voci\05 - Gloria in excelcis Deo, et in terra pax - Gloria.wav
     Pre-gap length  0:00:01.15
     Peak level 79.4 %
     Track quality 100.0 %
     Test CRC 307787AD
     Copy CRC 307787AD
     Accurately ripped (confidence 6)  [E72587CA]
     Copy OK
Track  6
     Filename D:\Music\Josquin Desprez\[1995] Missa de Beata Virgine,Motets a la Vierge by A Sei Voci\06 - Qui tollis peccata mundi - Gloria.wav
     Peak level 61.3 %
     Track quality 99.9 %
     Test CRC DEC11F57
     Copy CRC DEC11F57
     Accurately ripped (confidence 6)  [9635E3FF]
     Copy OK
Track  7
     Filename D:\Music\Josquin Desprez\[1995] Missa de Beata Virgine,Motets a la Vierge by A Sei Voci\07 - Cum Sancto Spiritu in glorio Dei Patris - Gloria.wav
     Peak level 78.6 %
     Track quality 100.0 %
     Test CRC 1E6C92AF
     Copy CRC 1E6C92AF
     Accurately ripped (confidence 6)  [5DAA4B90]
     Copy OK
Track  8
     Filename D:\Music\Josquin Desprez\[1995] Missa de Beata Virgine,Motets a la Vierge by A Sei Voci\08 - Patrem omnipotentem - Credo.wav
     Pre-gap length  0:00:02.00
     Peak level 72.1 %
     Track quality 100.0 %
     Test CRC 7DED28C8
     Copy CRC 7DED28C8
     Accurately ripped (confidence 6)  [8EFE5534]
     Copy OK
Track  9
     Filename D:\Music\Josquin Desprez\[1995] Missa de Beata Virgine,Motets a la Vierge by A Sei Voci\09 - Crucifixus etiam pro nobis sub Pontio - Credo.wav
     Peak level 69.3 %
     Track quality 100.0 %
     Test CRC 2B6652F4
     Copy CRC 2B6652F4
     Accurately ripped (confidence 6)  [A06DF0AE]
     Copy OK
Track 10
     Filename D:\Music\Josquin Desprez\[1995] Missa de Beata Virgine,Motets a la Vierge by A Sei Voci\10 - Et in Spiritum Sanctum - Credo.wav
     Peak level 78.1 %
     Track quality 99.9 %
     Test CRC AC0E6949
     Copy CRC AC0E6949
     Accurately ripped (confidence 6)  [B680438D]
     Copy OK
Track 11
     Filename D:\Music\Josquin Desprez\[1995] Missa de Beata Virgine,Motets a la Vierge by A Sei Voci\11 - Ave Maria gratia - Offertoire.wav
     Peak level 25.2 %
     Track quality 100.0 %
     Test CRC 84E739C0
     Copy CRC 84E739C0
     Accurately ripped (confidence 6)  [8F60E71D]
     Copy OK
Track 12
     Filename D:\Music\Josquin Desprez\[1995] Missa de Beata Virgine,Motets a la Vierge by A Sei Voci\12 - Sanctus - Sanctus.wav
     Peak level 95.4 %
     Track quality 100.0 %
     Test CRC 4EDEA44E
     Copy CRC 4EDEA44E
     Accurately ripped (confidence 6)  [C2D04CB9]
     Copy OK
Track 13
     Filename D:\Music\Josquin Desprez\[1995] Missa de Beata Virgine,Motets a la Vierge by A Sei Voci\13 - Pleni sunt caeli - Sanctus.wav
     Peak level 58.5 %
     Track quality 99.8 %
     Test CRC CE4CEA86
     Copy CRC CE4CEA86
     Accurately ripped (confidence 6)  [684786DA]
     Copy OK
Track 14
     Filename D:\Music\Josquin Desprez\[1995] Missa de Beata Virgine,Motets a la Vierge by A Sei Voci\14 - Hosanna in excelsis - Sanctus.wav
     Peak level 100.0 %
     Track quality 100.0 %
     Test CRC D20887C1
     Copy CRC D20887C1
     Accurately ripped (confidence 6)  [0F125463]
     Copy OK
Track 15
     Filename D:\Music\Josquin Desprez\[1995] Missa de Beata Virgine,Motets a la Vierge by A Sei Voci\15 - Benedictus qui venit in nomine Domini - Benedictus.wav
     Peak level 51.7 %
     Track quality 100.0 %
     Test CRC 456C454A
     Copy CRC 456C454A
     Accurately ripped (confidence 6)  [A1FEA931]
     Copy OK
Track 16
     Filename D:\Music\Josquin Desprez\[1995] Missa de Beata Virgine,Motets a la Vierge by A Sei Voci\16 - Hosanna in excelsis - Benedictus.wav
     Peak level 91.8 %
     Track quality 100.0 %
     Test CRC A9F28FA3
     Copy CRC A9F28FA3
     Accurately ripped (confidence 6)  [A6887EA7]
     Copy OK
Track 17
     Filename D:\Music\Josquin Desprez\[1995] Missa de Beata Virgine,Motets a la Vierge by A Sei Voci\17 - Agnus Dei I.wav
     Peak level 52.5 %
     Track quality 100.0 %
     Test CRC 87C25404
     Copy CRC 87C25404
     Accurately ripped (confidence 6)  [F58C5DA2]
     Copy OK
Track 18
     Filename D:\Music\Josquin Desprez\[1995] Missa de Beata Virgine,Motets a la Vierge by A Sei Voci\18 - Agnus Dei II.wav
     Peak level 37.5 %
     Track quality 100.0 %
     Test CRC 69233479
     Copy CRC 69233479
     Accurately ripped (confidence 6)  [88476FAA]
     Copy OK
Track 19
     Filename D:\Music\Josquin Desprez\[1995] Missa de Beata Virgine,Motets a la Vierge by A Sei Voci\19 - Agnus Dei III.wav
     Peak level 60.4 %
     Track quality 100.0 %
     Test CRC B3D2D7D2
     Copy CRC B3D2D7D2
     Accurately ripped (confidence 6)  [3E2CCCE8]
     Copy OK
Track 20
     Filename D:\Music\Josquin Desprez\[1995] Missa de Beata Virgine,Motets a la Vierge by A Sei Voci\20 - O Virgo Prudentissima - Prima pars.wav
     Pre-gap length  0:00:07.08
     Peak level 87.0 %
     Track quality 100.0 %
     Test CRC 595AD531
     Copy CRC 595AD531
     Accurately ripped (confidence 6)  [66242303]
     Copy OK
Track 21
     Filename D:\Music\Josquin Desprez\[1995] Missa de Beata Virgine,Motets a la Vierge by A Sei Voci\21 - O Virgo Prudentissima - Secunda pars.wav
     Peak level 94.5 %
     Track quality 100.0 %
     Test CRC AF597A5C
     Copy CRC AF597A5C
     Accurately ripped (confidence 6)  [132D6399]
     Copy OK
Track 22
     Filename D:\Music\Josquin Desprez\[1995] Missa de Beata Virgine,Motets a la Vierge by A Sei Voci\22 - Stabat Matere Dolorosa - Prima pars.wav
     Pre-gap length  0:00:04.28
     Peak level 88.0 %
     Track quality 100.0 %
     Test CRC 00CB89BC
     Copy CRC 00CB89BC
     Accurately ripped (confidence 6)  [08E90D22]
     Copy OK
Track 23
     Filename D:\Music\Josquin Desprez\[1995] Missa de Beata Virgine,Motets a la Vierge by A Sei Voci\23 - Stabat Matere Dolorosa - Secunda pars.wav
     Peak level 98.7 %
     Track quality 99.9 %
     Test CRC 4B0008ED
     Copy CRC 4B0008ED
     Accurately ripped (confidence 6)  [DF50571E]
     Copy OK
Track 24
     Filename D:\Music\Josquin Desprez\[1995] Missa de Beata Virgine,Motets a la Vierge by A Sei Voci\24 - Ave Maria.wav
     Pre-gap length  0:00:07.68
     Peak level 96.1 %
     Track quality 100.0 %
     Test CRC E3CE7519
     Copy CRC E3CE7519
     Accurately ripped (confidence 6)  [D52FF43B]
     Copy OK
Track 25
     Filename D:\Music\Josquin Desprez\[1995] Missa de Beata Virgine,Motets a la Vierge by A Sei Voci\25 - Inviolata, Integra est Casta es Maria - Prima pars.wav
     Pre-gap length  0:00:07.03
     Peak level 42.3 %
     Track quality 100.0 %
     Test CRC DD0EE9D5
     Copy CRC DD0EE9D5
     Accurately ripped (confidence 6)  [3D1100D9]
     Copy OK
Track 26
     Filename D:\Music\Josquin Desprez\[1995] Missa de Beata Virgine,Motets a la Vierge by A Sei Voci\26 - Inviolata, Integra est Casta es Maria - Secunda pars.wav
     Peak level 53.4 %
     Track quality 100.0 %
     Test CRC 9A23158D
     Copy CRC 9A23158D
     Accurately ripped (confidence 6)  [7FFCF17B]
     Copy OK
Track 27
     Filename D:\Music\Josquin Desprez\[1995] Missa de Beata Virgine,Motets a la Vierge by A Sei Voci\27 - Inviolata, Integra est Casta es Maria - Tertia pars.wav
     Peak level 38.0 %
     Track quality 100.0 %
     Test CRC 515792DE
     Copy CRC 515792DE
     Accurately ripped (confidence 6)  [3056DB7D]
     Copy OK
Track 28
     Filename D:\Music\Josquin Desprez\[1995] Missa de Beata Virgine,Motets a la Vierge by A Sei Voci\28 - Tu Solus - Prima pars.wav
     Pre-gap length  0:00:06.20
     Peak level 70.0 %
     Track quality 100.0 %
     Test CRC 00BC4D39
     Copy CRC 00BC4D39
     Accurately ripped (confidence 6)  [ED760ABF]
     Copy OK
Track 29
     Filename D:\Music\Josquin Desprez\[1995] Missa de Beata Virgine,Motets a la Vierge by A Sei Voci\29 - Tu Solas - Secunda pars.wav
     Peak level 55.9 %
     Track quality 100.0 %
     Test CRC D63AF72D
     Copy CRC D63AF72D
     Accurately ripped (confidence 6)  [6B95FC20]
     Copy OK
All tracks accurately ripped
No errors occurred
End of status report


Скачать торрент 252.8 МБ


Download
Для скачивания .torrent файлов необходима регистрация
Сайт не распространяет и не хранит электронные версии произведений, а лишь предоставляет доступ к создаваемому пользователями каталогу ссылок на торрент-файлы, которые содержат только списки хеш-сумм

Страница 1 из 1

Ответить на тему

   Похожие торренты   Торрент 




cron