Регистрация ·  Логин: Пароль: Запомнить   · Забыли пароль?




Ответить на тему
Статистика раздачи
Размер: 1.61 ГБ | Зарегистрирован: 10 мар 2018, 13:22 | .torrent скачан: 0 раз(а)
Сидеров: [ 0  | 0 байт/сек ]   Личеров: [ 0  | 0 байт/сек ]   DHT: [ 0 / 0 ]
Автор Сообщение

Модератор
Аватара пользователя

Стаж: 6 лет
Сообщения: 7870
Молдова

Сообщение 10 мар 2018, 13:22 

[Цитировать]

Piotr Rubik - Tryptyk Swiуtokrzyski

Жанр: Оратория
Год выпуска диска: 2006
Производитель диска: Польша
Аудио кодек: FLAC
Тип рипа: image+.cue
Битрейт аудио: lossless
Продолжительность: 6 cd
Исполнители: Maciej Miecznikowski , Jan Nowicki , Janusz Radek , Joanna Słowinska
CHOR INSTYTUTU EDUKACJI MUZYCZNEJ AKADEMII SWIETOKRZYSKIEJ
CHOR KAMERALNY FERMATA
ORKIESTRA SYMFONICZNA FILHARMONII SWIETOKRZYSKIEJ im. O. Kolberga w Kielcach - Piotr Rubik
юТюбик
http://www.youtube.com/watch?v=AhqYQhQWnWQ&feature=related
http://www.youtube.com/watch?v=8sm0AlB6hS8&NR=1

CD 1
1. Inwokacja: Zdumienie
2. Część I - Krzyż: Prolog części I
3. Powstal człek
4. Trzy Krzyże
5. Żywym nie dane
6. Kto nie bierze swego krzyża
7. Część II - Weselne gody w Kanie Galilejskiej: Prolog części II
8. Trzeciego dnia odyło się wesele
9. Opuści człowiek ojca, matkę
10. Oblubienica i oblubieniec
11. Śmierć i trzy druhny z Kany Galilejskiej
12. Szatański, weselny chichot
13. A oni wierzyć w to nie chcieli
CD 2
1. Część III - Weselne gody w Słupi Nowej: Prolog części III
2. Drugi list do świętego Pawła
3. Ślub w Sanktuarium Drzewa Krzyża Świętego
4. Oblubieniec
5. Uczta weselna w Słupi Nowej
6. Przyśpiewka orszaku weselnego
7. Część IV - Krzyż A.D. 2000: Prolog części IV
8. Ten nie może być moim uczniem...
9. Śmierć i cztery pory roku
10. Świętokrzyska Golgota
11. Finał: Co ma przeminąć to przeminie

CD 3
1. Prolog -Tu Es Petrus
2. Pater Noster - Ludzie to Adam i Ewa
3. Pater Noster - Zdumienie
4. Pater Noster - Tak bowiem Bóg
5. Pater Noster - Strumień
6. Pater Noster - Intermezzo I
7. Litania z czterema porami roku
8. Ecce Homo - Ten który zdradził
9. Ecce Homo - Ten który zaparł
10. Ecce Homo - Ten który nie uwierzył
11. Ecce Homo - Ten który ne poznał
CD 4
1. Intermezzo II
2. Litania za niosących śmierć
3. Miłość to wierność wyborowi
4. Jedenaste
5. Niech mówią, że to nie jest miłość
6. Będziesz miłował
7. Litania do kaździutkiego na ziemi
8. Epilog - Tu Es Petrus

CD 5
1. Psalm apokaliptyczny - Prolog
2. Psalm apostolski
3. Psalm Adama i Ewy
4. Psalm Abrahama
5. Psalm mojżeszowy
6. Intermezzo wolności
7. Psalm z Krakowem
8. Psalm zapatrzenia
9. Psalm braci aniołów
10. Psalm z aniołem stróżem
11. Intermezzo pragnienia
CD 6
1. Psalm moich łez
2. Psalm z krzakami czarnych jeżyn
3. Psalm mojej nadziei
4. Psalm wbrew rozpaczy
5. Epitafium
6. Psalm z bukietem konwalii
7. Psalm z tańcowaniem
8. Psalm kochania
9. Psalm dla ciebie
10. Psalm apokaliptyczny - Epilog
EAC extraction logfile from 6. September 2010, 20:27 for CD
1 / Swietokrzyska Golgota
Used drive : slimtypeeSAU208 3 Adapter: 6 ID: 0
Read mode : Secure with NO C2, accurate stream, disable cache
Read offset correction : 6
Overread into Lead-In and Lead-Out : No
Used output format : C:\Program Files\Exact Audio Copy\Codecs\FLAC\flac.exe (User Defined Encoder)
128 kBit/s
Additional command line options : -8 -V %s
Other options :
Fill up missing offset samples with silence : Yes
Delete leading and trailing silent blocks : No
Installed external ASPI interface
Range status and errors
Selected range
Filename D:\1 - Swietokrzyska Golgota.flac.wav
Peak level 100.0 %
Range quality 99.9 %
CRC 0F68BAD7
Copy OK
No errors occured
End of status report
------------------------------------------------------------
EAC extraction logfile from 6. September 2010, 20:46 for CD
2 / Swietokrzyska Golgota
Used drive : slimtypeeSAU208 3 Adapter: 6 ID: 0
Read mode : Secure with NO C2, accurate stream, disable cache
Read offset correction : 6
Overread into Lead-In and Lead-Out : No
Used output format : C:\Program Files\Exact Audio Copy\Codecs\FLAC\flac.exe (User Defined Encoder)
128 kBit/s
Additional command line options : -8 -V %s
Other options :
Fill up missing offset samples with silence : Yes
Delete leading and trailing silent blocks : No
Installed external ASPI interface
Range status and errors
Selected range
Filename D:\2 - Swietokrzyska Golgota.flac.wav
Peak level 98.9 %
Range quality 100.0 %
CRC BB01614E
Copy OK
No errors occured
End of status report
EAC extraction logfile from 6. September 2010, 14:27 for CD
1 / Tu Es Petrus
Used drive : slimtypeeSAU208 3 Adapter: 6 ID: 0
Read mode : Secure with NO C2, accurate stream, disable cache
Read offset correction : 6
Overread into Lead-In and Lead-Out : No
Used output format : C:\Program Files\Exact Audio Copy\Codecs\FLAC\flac.exe (User Defined Encoder)
128 kBit/s
Additional command line options : -8 -V %s
Other options :
Fill up missing offset samples with silence : Yes
Delete leading and trailing silent blocks : No
Installed external ASPI interface
Range status and errors
Selected range
Filename C:\Documents and Settings\Admin\Рабочий стол\1 - Tu Es Petrus.flac.wav
Peak level 100.0 %
Range quality 100.0 %
CRC 6DCC50BC
Copy OK
No errors occured
End of status report
------------------------------------------------------------
EAC extraction logfile from 6. September 2010, 14:40 for CD
2 / Tu Es Petrus
Used drive : slimtypeeSAU208 3 Adapter: 6 ID: 0
Read mode : Secure with NO C2, accurate stream, disable cache
Read offset correction : 6
Overread into Lead-In and Lead-Out : No
Used output format : C:\Program Files\Exact Audio Copy\Codecs\FLAC\flac.exe (User Defined Encoder)
128 kBit/s
Additional command line options : -8 -V %s
Other options :
Fill up missing offset samples with silence : Yes
Delete leading and trailing silent blocks : No
Installed external ASPI interface
Range status and errors
Selected range
Filename C:\Documents and Settings\Admin\Рабочий стол\2 - Tu Es Petrus.flac.wav
Peak level 100.0 %
Range quality 99.9 %
CRC 01F0B4A1
Copy OK
No errors occured
End of status report
EAC extraction logfile from 6. September 2010, 19:49 for CD
1 / Psalterz Wrzesniowy
Used drive : slimtypeeSAU208 3 Adapter: 6 ID: 0
Read mode : Secure with NO C2, accurate stream, disable cache
Read offset correction : 6
Overread into Lead-In and Lead-Out : No
Used output format : C:\Program Files\Exact Audio Copy\Codecs\FLAC\flac.exe (User Defined Encoder)
128 kBit/s
Additional command line options : -8 -V %s
Other options :
Fill up missing offset samples with silence : Yes
Delete leading and trailing silent blocks : No
Installed external ASPI interface
Range status and errors
Selected range
Filename D:\1 - Psalterz Wrzesniowy.flac.wav
Peak level 100.0 %
Range quality 100.0 %
CRC 1E82E104
Copy OK
No errors occured
End of status report
------------------------------------------------------------
EAC extraction logfile from 6. September 2010, 20:06 for CD
2 / Psalterz Wrzesniowy
Used drive : slimtypeeSAU208 3 Adapter: 6 ID: 0
Read mode : Secure with NO C2, accurate stream, disable cache
Read offset correction : 6
Overread into Lead-In and Lead-Out : No
Used output format : C:\Program Files\Exact Audio Copy\Codecs\FLAC\flac.exe (User Defined Encoder)
128 kBit/s
Additional command line options : -8 -V %s
Other options :
Fill up missing offset samples with silence : Yes
Delete leading and trailing silent blocks : No
Installed external ASPI interface
Range status and errors
Selected range
Filename D:\2 - Psalterz Wrzesniowy.flac.wav
Peak level 100.0 %
Range quality 99.9 %
CRC 77BF8E98
Copy OK
No errors occured
End of status report
REM DISCID B40B660D
REM COMMENT "ExactAudioCopy v0.95b3"
PERFORMER "1"
TITLE "Swietokrzyska Golgota"
FILE "1 - Swietokrzyska Golgota.flac" WAVE
TRACK 01 AUDIO
TITLE "1. Inwokacja: Zdumienie"
PERFORMER "1"
FLAGS DCP
INDEX 01 00:00:00
TRACK 02 AUDIO
TITLE "2. Czesc I - Krzyz: Prolog czesci I"
PERFORMER "1"
FLAGS DCP
INDEX 00 05:12:31
INDEX 01 05:14:32
TRACK 03 AUDIO
TITLE "3. Powstal czlek"
PERFORMER "1"
FLAGS DCP
INDEX 00 09:33:58
INDEX 01 09:35:59
TRACK 04 AUDIO
TITLE "4. Trzy Krzyze"
PERFORMER "1"
FLAGS DCP
INDEX 00 13:07:30
INDEX 01 13:09:31
TRACK 05 AUDIO
TITLE "5. Zywym nie dane"
PERFORMER "1"
FLAGS DCP
INDEX 00 16:23:71
INDEX 01 16:25:72
TRACK 06 AUDIO
TITLE "6. Kto nie bierze swego krzyza"
PERFORMER "1"
FLAGS DCP
INDEX 00 19:09:57
INDEX 01 19:11:58
TRACK 07 AUDIO
TITLE "7. Czesc II - Weselne gody w Kanie Galilejskiej: Prolog czesci II"
PERFORMER "1"
FLAGS DCP
INDEX 00 23:11:11
INDEX 01 23:13:12
TRACK 08 AUDIO
TITLE "8. Trzeciego dnia odylo sie wesele"
PERFORMER "1"
FLAGS DCP
INDEX 00 26:57:11
INDEX 01 26:59:12
TRACK 09 AUDIO
TITLE "9. Opusci czlowiek ojca, matke"
PERFORMER "1"
FLAGS DCP
INDEX 00 29:13:00
INDEX 01 29:15:01
TRACK 10 AUDIO
TITLE "10. Oblubienica i oblubieniec"
PERFORMER "1"
FLAGS DCP
INDEX 00 33:50:35
INDEX 01 33:52:36
TRACK 11 AUDIO
TITLE "11. Smierc i trzy druhny z Kany Galilejskiej"
PERFORMER "1"
FLAGS DCP
INDEX 00 38:28:48
INDEX 01 38:30:49
TRACK 12 AUDIO
TITLE "12. Szatanski, weselny chichot"
PERFORMER "1"
FLAGS DCP
INDEX 00 41:16:46
INDEX 01 41:18:47
TRACK 13 AUDIO
TITLE "13. A oni wierzyc w to nie chcieli"
PERFORMER "1"
FLAGS DCP
INDEX 00 44:48:42
INDEX 01 44:50:43
REM DISCID 97096F0B
REM COMMENT "ExactAudioCopy v0.95b3"
PERFORMER "2"
TITLE "Swietokrzyska Golgota"
FILE "2 - Swietokrzyska Golgota.flac" WAVE
TRACK 01 AUDIO
TITLE "1. Czesc III - Weselne gody w Slupi Nowej: Prolog czesci III"
PERFORMER "2"
FLAGS DCP
INDEX 01 00:00:00
TRACK 02 AUDIO
TITLE "2. Drugi list do swietego Pawla"
PERFORMER "2"
FLAGS DCP
INDEX 00 02:21:25
INDEX 01 02:23:17
TRACK 03 AUDIO
TITLE "3. Slub w Sanktuarium Drzewa Krzyza Swietego"
PERFORMER "2"
FLAGS DCP
INDEX 00 07:16:13
INDEX 01 07:17:70
TRACK 04 AUDIO
TITLE "4. Oblubieniec"
PERFORMER "2"
FLAGS DCP
INDEX 00 10:20:11
INDEX 01 10:22:12
TRACK 05 AUDIO
TITLE "5. Uczta weselna w Slupi Nowej"
PERFORMER "2"
FLAGS DCP
INDEX 00 14:10:62
INDEX 01 14:12:63
TRACK 06 AUDIO
TITLE "6. Przyspiewka orszaku weselnego"
PERFORMER "2"
FLAGS DCP
INDEX 00 18:38:00
INDEX 01 18:40:01
TRACK 07 AUDIO
TITLE "7. Czesc IV - Krzyz A.D. 2000: Prolog czesci IV"
PERFORMER "2"
FLAGS DCP
INDEX 00 20:48:09
INDEX 01 20:50:10
TRACK 08 AUDIO
TITLE "8. Ten nie moze byc moim uczniem..."
PERFORMER "2"
FLAGS DCP
INDEX 00 24:51:55
INDEX 01 24:53:56
TRACK 09 AUDIO
TITLE "9. Smierc i cztery pory roku"
PERFORMER "2"
FLAGS DCP
INDEX 00 30:09:74
INDEX 01 30:12:00
TRACK 10 AUDIO
TITLE "10. Swietokrzyska Golgota"
PERFORMER "2"
FLAGS DCP
INDEX 00 33:13:65
INDEX 01 33:15:49
TRACK 11 AUDIO
TITLE "11. Final: Co ma przeminac to przeminie"
PERFORMER "2"
FLAGS DCP
INDEX 00 36:33:56
INDEX 01 36:35:57
REM DISCID 860C8E0B
REM COMMENT "ExactAudioCopy v0.95b3"
PERFORMER "1"
TITLE "Tu Es Petrus"
FILE "1 - Tu Es Petrus.flac" WAVE
TRACK 01 AUDIO
TITLE " / Intermezzo I"
PERFORMER "1"
FLAGS DCP
INDEX 01 00:00:00
TRACK 02 AUDIO
TITLE " / Litania z czterema porami roku"
PERFORMER "1"
FLAGS DCP
INDEX 00 02:32:49
INDEX 01 02:34:50
TRACK 03 AUDIO
TITLE " / Ludzie to Adam i Ewa"
PERFORMER "1"
FLAGS DCP
INDEX 00 08:19:44
INDEX 01 08:21:45
TRACK 04 AUDIO
TITLE " / Strumien"
PERFORMER "1"
FLAGS DCP
INDEX 00 13:47:16
INDEX 01 13:49:17
TRACK 05 AUDIO
TITLE " / Tak bowiem Bog"
PERFORMER "1"
FLAGS DCP
INDEX 00 18:42:26
INDEX 01 18:44:27
TRACK 06 AUDIO
TITLE " / Ten ktory nie poznal"
PERFORMER "1"
FLAGS DCP
INDEX 00 21:59:61
INDEX 01 22:01:62
TRACK 07 AUDIO
TITLE " / Ten ktory nie uwierzyl"
PERFORMER "1"
FLAGS DCP
INDEX 00 28:18:13
INDEX 01 28:20:14
TRACK 08 AUDIO
TITLE " / Ten ktory sie zaparl"
PERFORMER "1"
FLAGS DCP
INDEX 00 32:15:17
INDEX 01 32:17:18
TRACK 09 AUDIO
TITLE " / Ten ktory zdradzil"
PERFORMER "1"
FLAGS DCP
INDEX 00 37:50:69
INDEX 01 37:52:70
TRACK 10 AUDIO
TITLE " / Tu Es Petrus - Prolog"
PERFORMER "1"
FLAGS DCP
INDEX 00 41:32:02
INDEX 01 41:34:03
TRACK 11 AUDIO
TITLE " / Zdumienie"
PERFORMER "1"
FLAGS DCP
INDEX 00 48:36:53
INDEX 01 48:38:54
REM DISCID 6508E708
REM COMMENT "ExactAudioCopy v0.95b3"
PERFORMER "2"
TITLE "Tu Es Petrus"
FILE "2 - Tu Es Petrus.flac" WAVE
TRACK 01 AUDIO
TITLE " / Bedziesz milowal"
PERFORMER "2"
FLAGS DCP
INDEX 01 00:00:00
TRACK 02 AUDIO
TITLE " / Intermezzo II"
PERFORMER "2"
FLAGS DCP
INDEX 00 04:06:49
INDEX 01 04:08:37
TRACK 03 AUDIO
TITLE " / Jedenaste"
PERFORMER "2"
FLAGS DCP
INDEX 00 06:24:07
INDEX 01 06:26:08
TRACK 04 AUDIO
TITLE " / Litania do kazdziutkiego na ziemi"
PERFORMER "2"
FLAGS DCP
INDEX 00 13:07:68
INDEX 01 13:09:69
TRACK 05 AUDIO
TITLE " / Litania za niosacych smierc"
PERFORMER "2"
FLAGS DCP
INDEX 00 16:55:16
INDEX 01 16:57:17
TRACK 06 AUDIO
TITLE " / Milosc to wiernosc wyborowi"
PERFORMER "2"
FLAGS DCP
INDEX 00 21:29:07
INDEX 01 21:31:08
TRACK 07 AUDIO
TITLE " / Niech mowia, ze to nie jest milosc"
PERFORMER "2"
FLAGS DCP
INDEX 00 25:30:07
INDEX 01 25:32:08
TRACK 08 AUDIO
TITLE " / Tu Es Petrus - Epilog"
PERFORMER "2"
FLAGS DCP
INDEX 00 29:37:48
INDEX 01 29:39:34
REM DISCID 930C020B
REM COMMENT "ExactAudioCopy v0.95b3"
PERFORMER "1"
TITLE "Psalterz Wrzesniowy"
FILE "1 - Psalterz Wrzesniowy.flac" WAVE
TRACK 01 AUDIO
TITLE "1. Psalm apokaliptyczny - Prolog"
PERFORMER "1"
FLAGS DCP
INDEX 01 00:00:00
TRACK 02 AUDIO
TITLE "2. Psalm apostolski"
PERFORMER "1"
FLAGS DCP
INDEX 00 07:46:13
INDEX 01 07:48:14
TRACK 03 AUDIO
TITLE "3. Psalm Adama i Ewy"
PERFORMER "1"
FLAGS DCP
INDEX 00 13:00:42
INDEX 01 13:02:43
TRACK 04 AUDIO
TITLE "4. Psalm Abrahama"
PERFORMER "1"
FLAGS DCP
INDEX 00 17:07:68
INDEX 01 17:09:54
TRACK 05 AUDIO
TITLE "5. Psalm mojzeszowy"
PERFORMER "1"
FLAGS DCP
INDEX 00 21:19:57
INDEX 01 21:21:58
TRACK 06 AUDIO
TITLE "6. Intermezzo wolnosci"
PERFORMER "1"
FLAGS DCP
INDEX 00 25:32:40
INDEX 01 25:34:41
TRACK 07 AUDIO
TITLE "7. Psalm z Krakowem"
PERFORMER "1"
FLAGS DCP
INDEX 00 29:04:66
INDEX 01 29:06:67
TRACK 08 AUDIO
TITLE "8. Psalm zapatrzenia"
PERFORMER "1"
FLAGS DCP
INDEX 00 34:39:14
INDEX 01 34:41:15
TRACK 09 AUDIO
TITLE "9. Psalm braci aniolow"
PERFORMER "1"
FLAGS DCP
INDEX 00 38:37:26
INDEX 01 38:39:27
TRACK 10 AUDIO
TITLE "10. Psalm z aniolem strozem"
PERFORMER "1"
FLAGS DCP
INDEX 00 43:14:46
INDEX 01 43:16:47
TRACK 11 AUDIO
TITLE "11. Intermezzo pragnienia"
PERFORMER "1"
FLAGS DCP
INDEX 00 49:06:66
INDEX 01 49:08:43
REM DISCID 9A0B5A0A
REM COMMENT "ExactAudioCopy v0.95b3"
PERFORMER "2"
TITLE "Psalterz Wrzesniowy"
FILE "2 - Psalterz Wrzesniowy.flac" WAVE
TRACK 01 AUDIO
TITLE "1. Psalm moich lez"
PERFORMER "2"
FLAGS DCP
INDEX 01 00:00:00
TRACK 02 AUDIO
TITLE "2. Psalm z krzakami czarnych jezyn"
PERFORMER "2"
FLAGS DCP
INDEX 00 04:47:17
INDEX 01 04:49:07
TRACK 03 AUDIO
TITLE "3. Psalm mojej nadziei"
PERFORMER "2"
FLAGS DCP
INDEX 00 10:41:06
INDEX 01 10:43:07
TRACK 04 AUDIO
TITLE "4. Psalm wbrew rozpaczy"
PERFORMER "2"
FLAGS DCP
INDEX 00 16:56:01
INDEX 01 16:57:64
TRACK 05 AUDIO
TITLE "5. Epitafium"
PERFORMER "2"
FLAGS DCP
INDEX 00 21:28:73
INDEX 01 21:30:74
TRACK 06 AUDIO
TITLE "6. Psalm z bukietem konwalii"
PERFORMER "2"
FLAGS DCP
INDEX 00 24:49:66
INDEX 01 24:51:67
TRACK 07 AUDIO
TITLE "7. Psalm z tancowaniem"
PERFORMER "2"
FLAGS DCP
INDEX 00 29:23:39
INDEX 01 29:25:40
TRACK 08 AUDIO
TITLE "8. Psalm kochania"
PERFORMER "2"
FLAGS DCP
INDEX 00 33:05:00
INDEX 01 33:07:01
TRACK 09 AUDIO
TITLE "9. Psalm dla ciebie"
PERFORMER "2"
FLAGS DCP
INDEX 00 38:09:49
INDEX 01 38:11:50
TRACK 10 AUDIO
TITLE "10. Psalm apokaliptyczny - Epilog"
PERFORMER "2"
FLAGS DCP
INDEX 00 43:09:58
INDEX 01 43:11:59
Рип делал сам


Скачать торрент 1.61 ГБ


Download
Для скачивания .torrent файлов необходима регистрация
Сайт не распространяет и не хранит электронные версии произведений, а лишь предоставляет доступ к создаваемому пользователями каталогу ссылок на торрент-файлы, которые содержат только списки хеш-сумм

Страница 1 из 1

Ответить на тему

   Похожие торренты   Торрент 




cron