Регистрация ·  Логин: Пароль: Запомнить   · Забыли пароль?




Ответить на тему
Статистика раздачи
Размер: 278.96 МБ | Зарегистрирован: 10 мар 2018, 13:22 | .torrent скачан: 0 раз(а)
Сидеров: [ 7  | 0 байт/сек ]   Личеров: [ 2  | 0 байт/сек ]   DHT: [ 7 / 2 ]
Автор Сообщение

Модератор
Аватара пользователя

Стаж: 6 лет
Сообщения: 7870
Молдова

Сообщение 10 мар 2018, 13:22 

[Цитировать]

Campra Andre - Grands motets (William Christie & Les Arts Florissants)

Жанр: Baroque/Motet
Год выпуска диска: 2007
Производитель диска: EU (Virgin)
Аудио кодек: APE
Тип рипа: image+.cue
Битрейт аудио: lossless
Продолжительность: 67’04
Исполнители:
Jaël Azzaretti – dessus
Paul Agnew – haute-contre
Bruno Renhold – haute-contre
Nicolas Rivenq – taille
Andrew Foster-Williams – basse-taille
Arnaud Marzorati- basse-taille
Les Arts Florissants, Choeur et Orchestre
Conductor - William Christie
1. Notus in Judea Deus (1729). Récit de basse-taille: Notus in Judea Deus
2. Choeurs: Ibi confregit
3. Petit choeur: Illuminans tu mirabiliter
4. Récit de dessus : Dormierunt somnum suum
5. Récit de basse-taille & duo de basses-taille: Ab increpatione/Tu terribilis es
6. Choeurs: De coelo auditum
7. Récit de haute-contre: Cum exurgeret
8. Récit de taille: Vovete et reddite
9. Choeurs: Terribili et ei qui aufert
10. De profundis. Symphonie
11. Récit de basse-taille: De profundis clamavi
12. Récit de haute-contre: Si iniquitates
13. Choeur: Quia apus te
14. Récit de dessus: A custodia
15. Trio haute-contre/taille/basse-taille: Qui apus te
16. Dialogue haute-contre/taille/basse-taille: Et ipse rediment
17. Choeur: Requiem
18. Exaudiat te Dominus (psaume 19). Récit de taille: Exaudiat te Dominus
19. Choeur: Mittat tibi auxilium
20. Dialogue haute-conte/basse-taille: Memor sit omnis sacrificii tui
21. Choeur & basse-taille : Lµtabimur in salutari tuo
22. Duo haute-contre/taille : Impleat Dominus
23. Duo de basses-tailles: Hii in curribus
24. Choeur: Ipsi obligate sunt
25. Trio haute-contre/taille/basse-taille: Domine salvum fac Regem
26. Choeur: Et exaudi nos
27. Requiem. Requiem aeternam (Choeur)
Код:
Exact Audio Copy V0.99 prebeta 4 from 23. January 2008
Отчёт EAC об извлечении, выполненном 8. ноября 2009, 1:00
William Christie & Les Arts Florissants / Campra Andre - Grands motets
Дисковод: Optiarc DVD RW AD-7173A   Adapter: 1  ID: 1
Режим чтения                 : Достоверность
Использование точного потока : Да
Отключение кэша аудио        : Да
Использование указателей C2  : Нет
Коррекция смещения при чтении                     : 48
Способность читать области Lead-in и Lead-out     : Нет
Заполнение пропущенных сэмплов тишиной            : Да
Удаление блоков с тишиной в начале и конце        : Нет
При вычислениях CRC использовались нулевые сэмплы : Да
Интерфейс                                         : Встроенный Win32-интерфейс для Win NT/2000
Выходной формат : Внутренние WAV-операции
Формат сэмплов  : 44.100 Гц; 16 бит; стерео
TOC извлечённого CD
     Трек |   Старт  | Длительность | Начальный сектор | Конечный сектор
    ---------------------------------------------------------------------
       1  |  0:00.00 |    1:44.19   |           0      |       7818
       2  |  1:44.19 |    1:41.30   |        7819      |      15423
       3  |  3:25.49 |    2:15.39   |       15424      |      25587
       4  |  5:41.13 |    4:10.07   |       25588      |      44344
       5  |  9:51.20 |    2:02.71   |       44345      |      53565
       6  | 11:54.16 |    2:25.63   |       53566      |      64503
       7  | 14:20.04 |    2:15.55   |       64504      |      74683
       8  | 16:35.59 |    3:28.49   |       74684      |      90332
       9  | 20:04.33 |    1:54.29   |       90333      |      98911
      10  | 21:58.62 |    1:01.52   |       98912      |     103538
      11  | 23:00.39 |    3:07.14   |      103539      |     117577
      12  | 26:07.53 |    2:22.15   |      117578      |     128242
      13  | 28:29.68 |    1:30.03   |      128243      |     134995
      14  | 29:59.71 |    1:55.70   |      134996      |     143690
      15  | 31:55.66 |    1:34.42   |      143691      |     150782
      16  | 33:30.33 |    1:47.42   |      150783      |     158849
      17  | 35:18.00 |    5:26.15   |      158850      |     183314
      18  | 40:44.15 |    1:51.48   |      183315      |     191687
      19  | 42:35.63 |    1:43.29   |      191688      |     199441
      20  | 44:19.17 |    1:54.74   |      199442      |     208065
      21  | 46:14.16 |    2:04.22   |      208066      |     217387
      22  | 48:18.38 |    3:21.57   |      217388      |     232519
      23  | 51:40.20 |    2:42.48   |      232520      |     244717
      24  | 54:22.68 |    2:18.38   |      244718      |     255105
      25  | 56:41.31 |    1:09.17   |      255106      |     260297
      26  | 57:50.48 |    1:10.44   |      260298      |     265591
      27  | 59:01.17 |    8:01.09   |      265592      |     301675
Характеристики диапазона извлечения и сообщения об ошибках
Выбранный диапазон
     Имя файла C:\Documents and Settings\Campra Andre - Grands motets.wav
     Пиковый уровень 95.4 %
     Качество диапазона 100.0 %
     CRC копии DE8A0D5A
     Копирование... OK
Ошибок не произошло
Конец отчёта


Скачать торрент 278.96 МБ


Download
Для скачивания .torrent файлов необходима регистрация
Сайт не распространяет и не хранит электронные версии произведений, а лишь предоставляет доступ к создаваемому пользователями каталогу ссылок на торрент-файлы, которые содержат только списки хеш-сумм

Страница 1 из 1

Ответить на тему

   Похожие торренты   Торрент