Регистрация ·  Логин: Пароль: Запомнить   · Забыли пароль?




Ответить на тему
Статистика раздачи
Размер: 647.36 МБ | Зарегистрирован: 10 мар 2018, 13:22 | .torrent скачан: 0 раз(а)
Сидеров: [ 2  | 0 байт/сек ]   Личеров: [ 1  | 0 байт/сек ]   DHT: [ 2 / 1 ]
Автор Сообщение

Модератор
Аватара пользователя

Стаж: 6 лет
Сообщения: 7870
Молдова

Сообщение 10 мар 2018, 13:22 

[Цитировать]

Алексей Иванов (баритон) - 2 CD / Alexey Ivanov (baritone) - 2 CD


Жанр: арии, романсы и песни
Год выпуска диска: 2005
Производитель диска: Россия
Аудио кодек: APE
Тип рипа: image+.cue
Битрейт аудио: lossless
Продолжительность: CD-1 - 75:23, CD-2 - 73:15
Трэклист:
CD - 1
1. Ария Неизвестного (А.Верстовский «Аскольдова могила» 2д.) 6:53
2. Ария князя Игоря (А.Бородин «Князь Игорь» 2д.) 7:24
3. Ария Шакловитого (М.Мусоргский «Хованщина» Зд.) 6:06
4. Ария Грязного (Н.Римский-Корсаков «Царская невеста» 1д.) 5:30
5. Ария Демона (А.Рубинштейн «Демон» 2д.) 3:11
6. Сцена Петра и Еремки (А.Серов «Вражья сила» Зд.) 10:23 Еремка - Н.Щегольков
7. Ариозо Мазепы (ПЧайковский «Мазепа» 2д.) 5:26
8. Песенка Томского (П.Чайковский «Пиковая Дама» Зд.) 2:36
9. Каватина Дулькамары (Г.Доницетти «Любовный напиток» 1д.) 6:13
10. Каватина Валентина (Ш.Гуно «Фауст» 1д.) 4:27
11. Баллада Нелюско (Дж.Мейербер «Африканка» Зд.) 2:31
12. Вакхическая песнь Гамлета (А.Тома «Гамлет» 2д.) 3:58
13. Песня Вольфрама (Р,Вагнер «Тангейзер» 2д.) 6:18
14. Романс Вольфрама (Р.Вагнер «Тангейзер» Зд.) 4:30
Симфонический оркестр Всесоюзного Радио, дирижер В.Смирнов (1)
Оркестр Большого театра, дирижеры: В.Небольсин (2-4,10,12-14), А Мелик-Пашаев (5,8),
К.Кондрашин (6), Л.Штейнберг (7), А.Орлов (9, 11)
Годы записи: 1940 (7), 1945 (9,11), 1947 (13,14), 1948 (1,10,12), 1949 (б), 1950 (3,5), 1952 (2,4)
CD - 2
1. Пролог (Р.Леонкавалло «Паяцы») 5:36
2. Сцена и ария Риголетто (Дж.Верди «Риголетто» 2д.) 7:47
3. Монолог Яго (Дж.Верди «Отелло» 2д.) 5:22
4. Ариозо Скарпиа (Дж.Пуччиии «Тоска» 2д.) 2:30
5. Желание (А.Рубинштейн - М.Лермонтов) 3:50
6. Песня старца (М.Мусоргский - И.Гете) 3:11
7. Дуют ветры (М.Мусоргский - А.Кольцов) 5:27
8. По-над Доном сад цветет (М.Мусоргский - А.Кольцов) 2:33
Песня и пляски смерти (вокальный цикл) (М.Мусоргский - А.Голенищев-Кутузов)
9. 1. Колыбельная 4:36
10. 2. Серенада 4:35
11. 3. Трепак 4:23
12. 4. Полководец 6:05
13. Вчерашняя ночь (М.Балакирев - А.Хомяков) 3:56
14. Исступление (М.Балакирев – А.Кольцов) 1:18
15. Я в гроте ждал тебя (Н.Римский-Корсаков - А.К.Толстой) 2:29
16. На нивы желтые (П.Чайковский - А.К.Толстой) 3:41
17. Пойми хоть раз (П.Чайковский - А.Фет) 1:41
18. Я опять одинок (С.Рахманинов - И.Бунин из Т.Шевченко) 2:09
19. Давно ль, мой друг (С.Рахманинов - А.Голенищев-Кутузов) 2:11
Оркестр Большого театра. Дирижеры: В.Дельман (1), А.Чугунов (2), А.Мелик-Пашаев (3), Б.Хайкин (4)
фортепиано: А.Зыбцев (5, 7, 13-19), В.Викторов (6, 8-12)
Годы записи: 1940(2), 1952(15-19), 1954(5,7, 13, 14), 1961(1,6,8), 1962(9-12), 1963(4)
Exact Audio Copy V0.99 prebeta 1 from 25. May 2007
Отчёт EAC об извлечении, выполненном 25. августа 2008, 23:45
Unknown Artist / Unknown Title
Дисковод: HL-DT-STDVDRAM GSA-T10N Adapter: 0 ID: 1
Режим чтения : Достоверность
Использование точного потока : Да
Отключение кэша аудио : Да
Использование указателей C2 : Нет
Коррекция смещения при чтении : 667
Способность читать области Lead-in и Lead-out : Нет
Заполнение пропущенных сэмплов тишиной : Да
Удаление блоков с тишиной в начале и конце : Нет
Интерфейс : Встроенный Win32-интерфейс для Win NT/2000
Выходной формат : Внутренние WAV-операции
Формат сэмплов : 44.100 Гц; 16 бит; стерео
TOC извлечённого CD
Трек | Старт | Длительность | Начальный сектор | Конечный сектор
---------------------------------------------------------------------
1 | 0:00.00 | 6:52.63 | 0 | 30962
2 | 6:52.63 | 7:24.26 | 30963 | 64288
3 | 14:17.14 | 6:06.07 | 64289 | 91745
4 | 20:23.21 | 5:30.03 | 91746 | 116498
5 | 25:53.24 | 3:10.73 | 116499 | 130821
6 | 29:04.22 | 10:23.05 | 130822 | 177551
7 | 39:27.27 | 5:25.29 | 177552 | 201955
8 | 44:52.56 | 2:36.10 | 201956 | 213665
9 | 47:28.66 | 6:12.29 | 213666 | 241594
10 | 53:41.20 | 4:27.21 | 241595 | 261640
11 | 58:08.41 | 2:31.26 | 261641 | 272991
12 | 60:39.67 | 3:57.50 | 272992 | 290816
13 | 64:37.42 | 6:18.39 | 290817 | 319205
14 | 70:56.06 | 4:29.47 | 319206 | 339427
Характеристики диапазона извлечения и сообщения об ошибках
Выбранный диапазон
Имя файла D:\Alexey_Ivanov_[rutracker.org]\disk1\Aleksey_Ivanov_1.wav
Пиковый уровень 97.8 %
Качество диапазона 99.9 %
CRC копии 125ED6AA
Копирование... OK
Ошибок не произошло
Конец отчёта
Exact Audio Copy V0.99 prebeta 1 from 25. May 2007
Отчёт EAC об извлечении, выполненном 26. августа 2008, 0:09
Unknown Artist / Unknown Title
Дисковод: HL-DT-STDVDRAM GSA-T10N Adapter: 0 ID: 1
Режим чтения : Достоверность
Использование точного потока : Да
Отключение кэша аудио : Да
Использование указателей C2 : Нет
Коррекция смещения при чтении : 667
Способность читать области Lead-in и Lead-out : Нет
Заполнение пропущенных сэмплов тишиной : Да
Удаление блоков с тишиной в начале и конце : Нет
Интерфейс : Встроенный Win32-интерфейс для Win NT/2000
Выходной формат : Внутренние WAV-операции
Формат сэмплов : 44.100 Гц; 16 бит; стерео
TOC извлечённого CD
Трек | Старт | Длительность | Начальный сектор | Конечный сектор
---------------------------------------------------------------------
1 | 0:00.00 | 5:35.54 | 0 | 25178
2 | 5:35.54 | 7:47.23 | 25179 | 60226
3 | 13:23.02 | 5:21.58 | 60227 | 84359
4 | 18:44.60 | 2:30.01 | 84360 | 95610
5 | 21:14.61 | 3:50.30 | 95611 | 112890
6 | 25:05.16 | 3:10.56 | 112891 | 127196
7 | 28:15.72 | 5:27.06 | 127197 | 151727
8 | 33:43.03 | 2:33.06 | 151728 | 163208
9 | 36:16.09 | 4:35.74 | 163209 | 183907
10 | 40:52.08 | 4:34.42 | 183908 | 204499
11 | 45:26.50 | 4:22.46 | 204500 | 224195
12 | 49:49.21 | 6:05.08 | 224196 | 251578
13 | 55:54.29 | 3:55.47 | 251579 | 269250
14 | 59:50.01 | 1:17.45 | 269251 | 275070
15 | 61:07.46 | 2:28.49 | 275071 | 286219
16 | 63:36.20 | 3:40.67 | 286220 | 302786
17 | 67:17.12 | 1:40.70 | 302787 | 310356
18 | 68:58.07 | 2:08.55 | 310357 | 320011
19 | 71:06.62 | 2:10.51 | 320012 | 329812
Характеристики диапазона извлечения и сообщения об ошибках
Выбранный диапазон
Имя файла D:\Alexey_Ivanov_[rutracker.org]\disk2\Aleksey_Ivanov_2.wav
Пиковый уровень 97.8 %
Качество диапазона 100.0 %
CRC копии 8FA0024E
Копирование... OK
Ошибок не произошло
Доп. информация: Обложки и буклет в папках с музыкой.


Скачать торрент 647.36 МБ


Download
Для скачивания .torrent файлов необходима регистрация
Сайт не распространяет и не хранит электронные версии произведений, а лишь предоставляет доступ к создаваемому пользователями каталогу ссылок на торрент-файлы, которые содержат только списки хеш-сумм

Страница 1 из 1

Ответить на тему

   Похожие торренты   Торрент