Регистрация ·  Логин: Пароль: Запомнить   · Забыли пароль?




Ответить на тему
Статистика раздачи
Размер: 722.06 МБ | Зарегистрирован: 10 мар 2018, 13:22 | .torrent скачан: 0 раз(а)
Сидеров: [ 0  | 0 байт/сек ]   Личеров: [ 0  | 0 байт/сек ]   DHT: [ 0 / 0 ]
Автор Сообщение

Модератор
Аватара пользователя

Стаж: 6 лет
Сообщения: 7870
Молдова

Сообщение 10 мар 2018, 13:22 

[Цитировать]


Britten - The Folk Songs
Жанр: Vocal
Страна-производитель диска: Great Britain
Год издания диска: 1995
Издатель (лейбл): Collins Classics
Номер по каталогу: 70392
Дата записи: 1995
Аудиокодек: FLAC
Тип рипа: image+.cue
Битрейт аудио: lossless
Продолжительность: 03.66.13
Источник: собственный рип
Наличие сканов в содержимом раздачи: да
Исполнители: David Norris, piano
Felicity Lott, Philip Langridge, Thomas Allen
Carlos Bonell, Christopher van Kampen, Graham Johnson
The Wenhaston Boys Choir, Christopher Barnett
Northern Sinfonia, Steuart Bedford
BBC Singers, Simon Loly
01. The Salley Gardens
02. Little Sir William
03. The Bonny Earl o' Moray
04. O can ye sew cushions?
05. The trees they grow so high
06. The Ash Grove
07. Oliver Cromwell
08. Greensleeves
09. I wonder as I wander
10. The Crocodile
11. The Plough Boy
12. There's none to soothe
13. Sweet Polly Oliver
14. The Miller of Dee
15. The foggy, foggy dew
16. O Waly, Waly
17. Come you not from Newcastle?
18. Pray Goody
19. The Brisk Young Widow
20. Sally in our Alley
21. The Lincolnshire Poacher
22. Early one morning
23. Ca' the yowes
24. The Holly and the Ivy
25. Soldier, won't you marry me?
26. The Deaf Woman's Courtship
Total 65.32
Код:
Exact Audio Copy V0.99 prebeta 5 from 4. May 2009
Отчёт EAC об извлечении, выполненном 12. февраля 2012, 11:52
Various Artists / Benjamin Britten - The Folk Songs - CD1
Дисковод: _NEC    DVD_RW ND-3570A   Adapter: 3  ID: 0
Режим чтения                 : Достоверность
Использование точного потока : Да
Отключение кэша аудио        : Да
Использование указателей C2  : Нет
Коррекция смещения при чтении                     : 48
Способность читать области Lead-in и Lead-out     : Нет
Заполнение пропущенных сэмплов тишиной            : Да
Удаление блоков с тишиной в начале и конце        : Нет
При вычислениях CRC использовались нулевые сэмплы : Да
Интерфейс                                         : Установленный внешний ASPI-интерфейс
Выходной формат          : Пользовательский кодировщик
Выбранный битрейт        : 128 kBit/s
Качество                 : Высокий
Добавление ID3-тэга      : Нет
Утилита сжатия           : C:\Program Files\Exact Audio Copy\Flac\flac.exe
Дополнительные параметры : -8 -V -T "ARTIST=%a" -T "TITLE=%t" -T "ALBUM=%g" -T "DATE=%y" -T "TRACKNUMBER=%n" -T "GENRE=%m" -T "COMMENT=EAC FLAC -8" %s
TOC извлечённого CD
     Трек |   Старт  | Длительность | Начальный сектор | Конечный сектор
    ---------------------------------------------------------------------
       1  |  0:00.00 |    2:34.57   |           0      |      11606
       2  |  2:34.57 |    3:01.55   |       11607      |      25236
       3  |  5:36.37 |    2:35.18   |       25237      |      36879
       4  |  8:11.55 |    2:20.50   |       36880      |      47429
       5  | 10:32.30 |    3:36.70   |       47430      |      63699
       6  | 14:09.25 |    2:35.52   |       63700      |      75376
       7  | 16:45.02 |    0:46.05   |       75377      |      78831
       8  | 17:31.07 |    1:57.18   |       78832      |      87624
       9  | 19:28.25 |    4:00.32   |       87625      |     105656
      10  | 23:28.57 |    4:47.38   |      105657      |     127219
      11  | 28:16.20 |    1:56.05   |      127220      |     135924
      12  | 30:12.25 |    1:37.10   |      135925      |     143209
      13  | 31:49.35 |    2:14.57   |      143210      |     153316
      14  | 34:04.17 |    1:56.20   |      153317      |     162036
      15  | 36:00.37 |    2:34.23   |      162037      |     173609
      16  | 38:34.60 |    4:03.55   |      173610      |     191889
      17  | 42:38.40 |    1:13.27   |      191890      |     197391
      18  | 43:51.67 |    0:48.10   |      197392      |     201001
      19  | 44:40.02 |    2:07.03   |      201002      |     210529
      20  | 46:47.05 |    4:09.30   |      210530      |     229234
      21  | 50:56.35 |    2:09.10   |      229235      |     238919
      22  | 53:05.45 |    3:18.05   |      238920      |     253774
      23  | 56:23.50 |    3:42.52   |      253775      |     270476
      24  | 60:06.27 |    2:24.45   |      270477      |     281321
      25  | 62:30.72 |    1:41.08   |      281322      |     288904
      26  | 64:12.05 |    1:19.37   |      288905      |     294866
Характеристики диапазона извлечения и сообщения об ошибках
Выбранный диапазон
     Имя файла F:\Exact Audio Copy\Britten - The Folk Songs\CD1\Various Artists - Benjamin Britten - The Folk Songs - CD1.wav
     Пиковый уровень 99.6 %
     Качество диапазона 100.0 %
     CRC теста BE3996E1
     CRC копии BE3996E1
     Копирование... OK
Ошибок не произошло
AccurateRip: сводка
Трек  1  точность не определена (достоверность 4)  [E1E60507], AccurateRip вернул [20F5526F]
Трек  2  точность не определена (достоверность 4)  [EF1CB502], AccurateRip вернул [6E7A12D4]
Трек  3  точность не определена (достоверность 4)  [9EF371F4], AccurateRip вернул [F84ABC6E]
Трек  4  точность не определена (достоверность 4)  [9D539C61], AccurateRip вернул [5510E61C]
Трек  5  точность не определена (достоверность 4)  [0B88EA52], AccurateRip вернул [0D76020E]
Трек  6  точность не определена (достоверность 4)  [D974A202], AccurateRip вернул [AC09E9CC]
Трек  7  точность не определена (достоверность 4)  [0A9F1FAC], AccurateRip вернул [F1F7CCD6]
Трек  8  точность не определена (достоверность 4)  [0FFB52F2], AccurateRip вернул [3BF25CE7]
Трек  9  точность не определена (достоверность 4)  [EBB6131A], AccurateRip вернул [B5F47B60]
Трек 10  точность не определена (достоверность 4)  [4C067A2D], AccurateRip вернул [E6B12CBF]
Трек 11  точность не определена (достоверность 4)  [87BBA221], AccurateRip вернул [25717376]
Трек 12  точность не определена (достоверность 4)  [E746AFE8], AccurateRip вернул [C619E37D]
Трек 13  точность не определена (достоверность 4)  [38D92083], AccurateRip вернул [A912EF6E]
Трек 14  точность не определена (достоверность 4)  [B83F5E29], AccurateRip вернул [85F83A0E]
Трек 15  точность не определена (достоверность 4)  [24B78FA2], AccurateRip вернул [5D7F23DE]
Трек 16  точность не определена (достоверность 4)  [015F7762], AccurateRip вернул [551AEFF6]
Трек 17  точность не определена (достоверность 4)  [E79AB305], AccurateRip вернул [C5F649DC]
Трек 18  точность не определена (достоверность 4)  [B4469F60], AccurateRip вернул [6E1C630D]
Трек 19  точность не определена (достоверность 4)  [0A8F5FF1], AccurateRip вернул [023180F3]
Трек 20  точность не определена (достоверность 4)  [DB5643F0], AccurateRip вернул [7FA6704F]
Трек 21  точность не определена (достоверность 4)  [2DB1AFB1], AccurateRip вернул [68258E63]
Трек 22  точность не определена (достоверность 4)  [6B73F909], AccurateRip вернул [95E9721F]
Трек 23  точность не определена (достоверность 4)  [C09776DB], AccurateRip вернул [4AED85B1]
Трек 24  точность не определена (достоверность 4)  [E2ACF7D1], AccurateRip вернул [6CFF6C89]
Трек 25  точность не определена (достоверность 3)  [8D434631], AccurateRip вернул [0D9BD565]
Трек 26  точность не определена (достоверность 4)  [156BF28E], AccurateRip вернул [AB3B0507]
Ни один трек не прошёл проверки на точность
В вашей базе может быть иной вариант штамповки диска
Конец отчёта
01. Avenging and bright
02. Sail on, sail on
03. How sweet the answer
04. The Minstrel Boy
05. At the mid hour of night
06. Rich and rare
07. Dear Harp of my Country!
08. Oft in the stilly night
09. The last rose of summer
10. O the sight entrancing
11. La Noel passe
12. Voici le Printemps
13. Fileuse
14. Le roi s'en va-t'en chasse
15. La belle est au jardin d'amour
16. Il est quelqu'un sur terre
17. Eho! Eho!.
18. Quand j'etais chez mon pere
19. I will give my love an apple
20. Sailor-boy
21. Master Kilby
22. The Soldier and the Sailor
23. Bonny at Morn
24. The Shooting of his Dear
25. The Stream in the Valley
26. Unidentified folk song setting
Total 66.59
Exact Audio Copy V0.99 prebeta 5 from 4. May 2009
Отчёт EAC об извлечении, выполненном 12. февраля 2012, 12:49
Various Artists / Benjamin Britten - The Folk Songs - CD2
Дисковод: _NEC DVD_RW ND-3570A Adapter: 3 ID: 0
Режим чтения : Достоверность
Использование точного потока : Да
Отключение кэша аудио : Да
Использование указателей C2 : Нет
Коррекция смещения при чтении : 48
Способность читать области Lead-in и Lead-out : Нет
Заполнение пропущенных сэмплов тишиной : Да
Удаление блоков с тишиной в начале и конце : Нет
При вычислениях CRC использовались нулевые сэмплы : Да
Интерфейс : Установленный внешний ASPI-интерфейс
Выходной формат : Пользовательский кодировщик
Выбранный битрейт : 128 kBit/s
Качество : Высокий
Добавление ID3-тэга : Нет
Утилита сжатия : C:\Program Files\Exact Audio Copy\Flac\flac.exe
Дополнительные параметры : -8 -V -T "ARTIST=%a" -T "TITLE=%t" -T "ALBUM=%g" -T "DATE=%y" -T "TRACKNUMBER=%n" -T "GENRE=%m" -T "COMMENT=EAC FLAC -8" %s
TOC извлечённого CD
Трек | Старт | Длительность | Начальный сектор | Конечный сектор
---------------------------------------------------------------------
1 | 0:00.00 | 1:34.00 | 0 | 7049
2 | 1:34.00 | 2:26.00 | 7050 | 17999
3 | 4:00.00 | 1:57.52 | 18000 | 26826
4 | 5:57.52 | 2:23.00 | 26827 | 37551
5 | 8:20.52 | 2:46.63 | 37552 | 50064
6 | 11:07.40 | 3:07.05 | 50065 | 64094
7 | 14:14.45 | 2:26.25 | 64095 | 75069
8 | 16:40.70 | 2:47.45 | 75070 | 87639
9 | 19:28.40 | 3:45.40 | 87640 | 104554
10 | 23:14.05 | 2:14.02 | 104555 | 114606
11 | 25:28.07 | 3:51.53 | 114607 | 131984
12 | 29:19.60 | 1:46.10 | 131985 | 139944
13 | 31:05.70 | 1:51.22 | 139945 | 148291
14 | 32:57.17 | 2:19.20 | 148292 | 158736
15 | 35:16.37 | 3:14.15 | 158737 | 173301
16 | 38:30.52 | 4:56.30 | 173302 | 195531
17 | 43:27.07 | 1:55.65 | 195532 | 204221
18 | 45:22.72 | 2:01.58 | 204222 | 213354
19 | 47:24.55 | 1:19.57 | 213355 | 219336
20 | 48:44.37 | 1:54.50 | 219337 | 227936
21 | 50:39.12 | 1:59.15 | 227937 | 236876
22 | 52:38.27 | 2:39.68 | 236877 | 248869
23 | 55:18.20 | 2:32.37 | 248870 | 260306
24 | 57:50.57 | 2:59.73 | 260307 | 273804
25 | 60:50.55 | 2:34.62 | 273805 | 285416
26 | 63:25.42 | 3:33.63 | 285417 | 301454
Характеристики диапазона извлечения и сообщения об ошибках
Выбранный диапазон
Имя файла F:\Exact Audio Copy\Britten - The Folk Songs\CD2\Various Artists - Benjamin Britten - The Folk Songs - CD2.wav
Пиковый уровень 93.5 %
Качество диапазона 100.0 %
CRC теста 6E5A5335
CRC копии 6E5A5335
Копирование... OK
Ошибок не произошло
AccurateRip: сводка
Трек 1 точность не определена (достоверность 4) [70C37DDD], AccurateRip вернул [7B892D3B]
Трек 2 точность не определена (достоверность 4) [8362FBD1], AccurateRip вернул [EE5D5CDA]
Трек 3 точность не определена (достоверность 4) [04E06991], AccurateRip вернул [58A1CB18]
Трек 4 точность не определена (достоверность 4) [2A3280A0], AccurateRip вернул [0B33CAE1]
Трек 5 точность не определена (достоверность 4) [AF54DAF6], AccurateRip вернул [32758B77]
Трек 6 точность не определена (достоверность 4) [0B827A14], AccurateRip вернул [60D4FB3C]
Трек 7 точность не определена (достоверность 4) [8633DCC7], AccurateRip вернул [B3BFE84F]
Трек 8 точность не определена (достоверность 4) [FB73FCEA], AccurateRip вернул [5A6A7CDA]
Трек 9 точность не определена (достоверность 3) [95170055], AccurateRip вернул [12D62F95]
Трек 10 точность не определена (достоверность 3) [1EF43116], AccurateRip вернул [F9046A0A]
Трек 11 точность не определена (достоверность 3) [F5777E73], AccurateRip вернул [E966C617]
Трек 12 точность не определена (достоверность 4) [A8ACA77C], AccurateRip вернул [095BEA9F]
Трек 13 точность не определена (достоверность 4) [9FE95F7D], AccurateRip вернул [B0F70BE5]
Трек 14 точность не определена (достоверность 4) [CC7D0F52], AccurateRip вернул [757A1ECF]
Трек 15 точность не определена (достоверность 4) [3E0B2E3C], AccurateRip вернул [E5206BB9]
Трек 16 точность не определена (достоверность 4) [057B01FD], AccurateRip вернул [3E85DF32]
Трек 17 точность не определена (достоверность 4) [08660FF0], AccurateRip вернул [7D7FD550]
Трек 18 точность не определена (достоверность 4) [0E439460], AccurateRip вернул [A627A8E5]
Трек 19 точность не определена (достоверность 4) [4F46A29B], AccurateRip вернул [8AE66F77]
Трек 20 точность не определена (достоверность 4) [3EDB15F4], AccurateRip вернул [3E86847A]
Трек 21 точность не определена (достоверность 3) [FEFB10F2], AccurateRip вернул [E25169DA]
Трек 22 точность не определена (достоверность 4) [A4084ED2], AccurateRip вернул [09AB1814]
Трек 23 точность не определена (достоверность 4) [BF20EBE6], AccurateRip вернул [A014CEFE]
Трек 24 точность не определена (достоверность 4) [AA4B6537], AccurateRip вернул [DBAEE918]
Трек 25 точность не определена (достоверность 4) [CD8EB4B4], AccurateRip вернул [161783BB]
Трек 26 точность не определена (достоверность 2) [B4057083], AccurateRip вернул [33BD9AB0]
Ни один трек не прошёл проверки на точность
В вашей базе может быть иной вариант штамповки диска
Конец отчёта
01. Lord! I married me a wife
02. She's like the swallow
03. Bonny at morn
04. Lemady
05. Bugeilio'r Gwenith Gwyn
06. Dafydd y Garreg Wen
07. The False Knight upon the road
08. Bird Scarer's Song
09. The Holly and the Ivy
10. King Herod and the Cock
11. The Twelve Apostles
12. The Bitter Withy
13. Le roi s'en va-t'en chasse
14. Fileuse
15. Eho! Eho!
16. La belle est au jardin d'amour
17. Quand j'etais chez mon pere
18. The Salley Gardens
19. Little Sir William
20. The Bonny Earl o' Moray
21. O can ye sew cushions?
22. Oliver Cromwell
23 The Plough Boy
24. O Waly, Waly
25. Come you not from Newcastle?
26. The Salley Gardens
Total 66.13
Exact Audio Copy V0.99 prebeta 5 from 4. May 2009
Отчёт EAC об извлечении, выполненном 12. февраля 2012, 13:45
Various Artists / Benjamin Britten - The Folk Songs - CD3
Дисковод: _NEC DVD_RW ND-3570A Adapter: 3 ID: 0
Режим чтения : Достоверность
Использование точного потока : Да
Отключение кэша аудио : Да
Использование указателей C2 : Нет
Коррекция смещения при чтении : 48
Способность читать области Lead-in и Lead-out : Нет
Заполнение пропущенных сэмплов тишиной : Да
Удаление блоков с тишиной в начале и конце : Нет
При вычислениях CRC использовались нулевые сэмплы : Да
Интерфейс : Установленный внешний ASPI-интерфейс
Выходной формат : Пользовательский кодировщик
Выбранный битрейт : 128 kBit/s
Качество : Высокий
Добавление ID3-тэга : Нет
Утилита сжатия : C:\Program Files\Exact Audio Copy\Flac\flac.exe
Дополнительные параметры : -8 -V -T "ARTIST=%a" -T "TITLE=%t" -T "ALBUM=%g" -T "DATE=%y" -T "TRACKNUMBER=%n" -T "GENRE=%m" -T "COMMENT=EAC FLAC -8" %s
TOC извлечённого CD
Трек | Старт | Длительность | Начальный сектор | Конечный сектор
---------------------------------------------------------------------
1 | 0:00.00 | 1:16.45 | 0 | 5744
2 | 1:16.45 | 2:43.55 | 5745 | 18024
3 | 4:00.25 | 1:27.12 | 18025 | 24561
4 | 5:27.37 | 3:16.65 | 24562 | 39326
5 | 8:44.27 | 2:20.20 | 39327 | 49846
6 | 11:04.47 | 3:05.18 | 49847 | 63739
7 | 14:09.65 | 3:40.10 | 63740 | 80249
8 | 17:50.00 | 1:01.50 | 80250 | 84874
9 | 18:51.50 | 3:18.45 | 84875 | 99769
10 | 22:10.20 | 2:01.62 | 99770 | 108906
11 | 24:12.07 | 6:11.60 | 108907 | 136791
12 | 30:23.67 | 5:11.40 | 136792 | 160156
13 | 35:35.32 | 2:10.48 | 160157 | 169954
14 | 37:46.05 | 1:38.62 | 169955 | 177366
15 | 39:24.67 | 1:50.65 | 177367 | 185681
16 | 41:15.57 | 2:28.73 | 185682 | 196854
17 | 43:44.55 | 1:53.67 | 196855 | 205396
18 | 45:38.47 | 2:49.08 | 205397 | 218079
19 | 48:27.55 | 2:53.52 | 218080 | 231106
20 | 51:21.32 | 2:39.13 | 231107 | 243044
21 | 54:00.45 | 2:14.40 | 243045 | 253134
22 | 56:15.10 | 0:40.72 | 253135 | 256206
23 | 56:56.07 | 1:59.28 | 256207 | 265159
24 | 58:55.35 | 3:22.37 | 265160 | 280346
25 | 62:17.72 | 1:12.33 | 280347 | 285779
26 | 63:30.30 | 2:43.00 | 285780 | 298004
Характеристики диапазона извлечения и сообщения об ошибках
Выбранный диапазон
Имя файла F:\Exact Audio Copy\Britten - The Folk Songs\CD3\Various Artists - Benjamin Britten - The Folk Songs - CD3.wav
Пиковый уровень 100.0 %
Качество диапазона 100.0 %
CRC теста 5D0448BF
CRC копии 5D0448BF
Копирование... OK
Ошибок не произошло
AccurateRip: сводка
Трек 1 точность не определена (достоверность 3) [AA5C8BBC], AccurateRip вернул [5BCD24F6]
Трек 2 точность не определена (достоверность 4) [9A5D131E], AccurateRip вернул [18384735]
Трек 3 точность не определена (достоверность 4) [322B5BA5], AccurateRip вернул [97EC572F]
Трек 4 точность не определена (достоверность 4) [0045765E], AccurateRip вернул [2E664973]
Трек 5 точность не определена (достоверность 4) [4C2932E8], AccurateRip вернул [BE5C0FDC]
Трек 6 точность не определена (достоверность 4) [63F760E0], AccurateRip вернул [73AAA9DB]
Трек 7 точность не определена (достоверность 4) [3C4EA091], AccurateRip вернул [76AC5AED]
Трек 8 точность не определена (достоверность 4) [7E677234], AccurateRip вернул [3136AA86]
Трек 9 точность не определена (достоверность 4) [A92117D6], AccurateRip вернул [FEBB23D0]
Трек 10 точность не определена (достоверность 4) [D21B1AD9], AccurateRip вернул [672A12FE]
Трек 11 точность не определена (достоверность 4) [5831A85A], AccurateRip вернул [0603F60E]
Трек 12 точность не определена (достоверность 4) [554F1F4B], AccurateRip вернул [567EE8B9]
Трек 13 точность не определена (достоверность 4) [889243AC], AccurateRip вернул [0FD4C81B]
Трек 14 точность не определена (достоверность 4) [AC8C7E98], AccurateRip вернул [F27AD197]
Трек 15 точность не определена (достоверность 4) [07066DE4], AccurateRip вернул [37688158]
Трек 16 точность не определена (достоверность 4) [354AFA9F], AccurateRip вернул [7B322671]
Трек 17 точность не определена (достоверность 4) [7AC284A1], AccurateRip вернул [5C2AD75B]
Трек 18 точность не определена (достоверность 4) [4BFC2693], AccurateRip вернул [14DA2483]
Трек 19 точность не определена (достоверность 4) [336543BE], AccurateRip вернул [885F4A01]
Трек 20 точность не определена (достоверность 4) [3CE62492], AccurateRip вернул [B9E7E3C0]
Трек 21 точность не определена (достоверность 4) [CC112F18], AccurateRip вернул [F74B8004]
Трек 22 точность не определена (достоверность 4) [0711F0B3], AccurateRip вернул [13DA2FAB]
Трек 23 точность не определена (достоверность 4) [A3931DEF], AccurateRip вернул [96DABFEB]
Трек 24 точность не определена (достоверность 4) [5A2F27E2], AccurateRip вернул [77CAAA77]
Трек 25 точность не определена (достоверность 4) [9E9240BF], AccurateRip вернул [3F0DF0AC]
Трек 26 точность не определена (достоверность 4) [3275D5BB], AccurateRip вернул [23ACAE4A]
Ни один трек не прошёл проверки на точность
В вашей базе может быть иной вариант штамповки диска
Конец отчёта


Скачать торрент 722.06 МБ


Download
Для скачивания .torrent файлов необходима регистрация
Сайт не распространяет и не хранит электронные версии произведений, а лишь предоставляет доступ к создаваемому пользователями каталогу ссылок на торрент-файлы, которые содержат только списки хеш-сумм

Страница 1 из 1

Ответить на тему

   Похожие торренты   Торрент 




cron