Регистрация ·  Логин: Пароль: Запомнить   · Забыли пароль?




Ответить на тему
Статистика раздачи
Размер: 216.84 МБ | Зарегистрирован: 10 мар 2018, 13:22 | .torrent скачан: 0 раз(а)
Сидеров: [ 0  | 0 байт/сек ]   Личеров: [ 0  | 0 байт/сек ]   DHT: [ 0 / 0 ]
Автор Сообщение

Модератор
Аватара пользователя

Стаж: 6 лет
Сообщения: 7870
Молдова

Сообщение 10 мар 2018, 13:22 

[Цитировать]

Rued Langgaard - Sfærernes Musik; 4 Tonebilleder - Геннадий Рождественский

Жанр: Не очень симфоническая музыка
Год выпуска диска: 1997
Производитель диска: Великобритания (Chandos)
Аудио кодек: APE
Тип рипа: image+.cue
Битрейт аудио: lossless
Продолжительность: 53:21
Произведения и исполнители:
Rued Langgaard
Sfærernes Musik (Music of the Spheres) BVN 128
Hedwig Rummel, Annette Simonsen - contralto (choir solos)
Danish National Choir
Danish National Symphony Orchestra
Jesper Grove Jørgensen (chorus master & distant orchestra conductor)
Gennady Rozhdestvensky
Tonebilleder (Tone Pictures) BVN 133
Gitta-Maria Sjöberg, soprano
Danish National Symphony Orchestra
Gennady Rozhdestvensky
Rued Langgaard
Music of the Spheres, for soprano, chorus, orchestra and distant orchestra 35:29
1 Like sunbeams on a coffin decorated with 2:32
sweet-smelling flowers
2 Like the twinkling of stars in the blue sky at sunset - 2:34
3 Like light and the depths - 2:08
4 Like the refraction of sunbeams in the waves - 0:36
5 Like the twinkling of a pearl of dew in the sun on 0:53
a beautiful summer's morning -
6 Longing - Despair - Ecstasy - 3:33
7 Soul of the world - Abyss - All Soul's day - 2:16
8 I wish...! - 1:21
9 Chaos - Ruin - Far and near - 2:07
10 Flowers wither - 1:36
11 Glimpse of the sum through tears - 5:17
12 Bells pealing: Look! He comes - 1:58
13 The gospel of flowers - From the far distance - 2:28
14 The new day - 1:32
15 The end: Antichrist - Christ 4:38
Hedwig Rummel - Annette Simonsen contralto, choir solos
Four Tone Pictures 17:44
16 I Likewords for a summer's day saga 4:28
17 II A scent of mull and mud 3:34
18 III A golden flake hovers above 4:38
19 IV The flowering summer was linked to the harvest 4:56
53:05
Gitta-Maria Sjoberg soprano
Danish National Choir/DR
Danish National Symphony Orchestra/DR
Jesper Grove Jorgensen
Gennady Rozhdestvensky
Exact Audio Copy V0.99 prebeta 5 from 4. May 2009
EAC extraction logfile from 24. September 2009, 23:09
Various / Langgaard - Music of the Spheres; Tonebilleder
Used drive : ASUS CRW-5232AS Adapter: 3 ID: 1
Read mode : Secure
Utilize accurate stream : Yes
Defeat audio cache : Yes
Make use of C2 pointers : No
Read offset correction : 6
Overread into Lead-In and Lead-Out : No
Fill up missing offset samples with silence : Yes
Delete leading and trailing silent blocks : No
Null samples used in CRC calculations : Yes
Used interface : Native Win32 interface for Win NT & 2000
Used output format : Internal WAV Routines
Sample format : 44.100 Hz; 16 Bit; Stereo
TOC of the extracted CD
Track | Start | Length | Start sector | End sector
---------------------------------------------------------
1 | 0:00.00 | 2:32.20 | 0 | 11419
2 | 2:32.20 | 2:33.52 | 11420 | 22946
3 | 5:05.72 | 2:07.72 | 22947 | 32543
4 | 7:13.69 | 0:36.21 | 32544 | 35264
5 | 7:50.15 | 0:52.17 | 35265 | 39181
6 | 8:42.32 | 3:33.50 | 39182 | 55206
7 | 12:16.07 | 2:16.08 | 55207 | 65414
8 | 14:32.15 | 1:20.62 | 65415 | 71476
9 | 15:53.02 | 2:07.43 | 71477 | 81044
10 | 18:00.45 | 1:36.20 | 81045 | 88264
11 | 19:36.65 | 5:16.32 | 88265 | 111996
12 | 24:53.22 | 1:57.48 | 111997 | 120819
13 | 26:50.70 | 2:26.67 | 120820 | 131836
14 | 29:17.62 | 1:33.15 | 131837 | 138826
15 | 30:51.02 | 4:46.18 | 138827 | 160294
16 | 35:37.20 | 4:29.70 | 160295 | 180539
17 | 40:07.15 | 3:36.57 | 180540 | 196796
18 | 43:43.72 | 4:41.30 | 196797 | 217901
19 | 48:25.27 | 4:56.20 | 217902 | 240121
Range status and errors
Selected range
Filename D:\Music\Langgaard - Music of the Spheres (Rozhdestvensky)\CDImage.wav
Peak level 99.9 %
Range quality 100.0 %
Copy CRC 31F7D2BD
Copy OK
No errors occurred
AccurateRip summary
Track 1 accurately ripped (confidence 1) [74A3B4E2]
Track 2 accurately ripped (confidence 1) [BC3A2F81]
Track 3 accurately ripped (confidence 1) [7292F669]
Track 4 accurately ripped (confidence 1) [A741013F]
Track 5 accurately ripped (confidence 1) [A5E1D352]
Track 6 accurately ripped (confidence 1) [75621B4D]
Track 7 accurately ripped (confidence 1) [CB068F10]
Track 8 accurately ripped (confidence 1) [D3C61F69]
Track 9 accurately ripped (confidence 1) [50269D79]
Track 10 accurately ripped (confidence 1) [8833E802]
Track 11 accurately ripped (confidence 1) [5544B254]
Track 12 accurately ripped (confidence 1) [D0D64A33]
Track 13 accurately ripped (confidence 1) [188DD979]
Track 14 accurately ripped (confidence 1) [6AF2BC45]
Track 15 accurately ripped (confidence 1) [ECB0BE59]
Track 16 accurately ripped (confidence 1) [A7797EE3]
Track 17 accurately ripped (confidence 1) [5996D31F]
Track 18 accurately ripped (confidence 1) [0A0D279E]
Track 19 accurately ripped (confidence 1) [26A5B71C]
All tracks accurately ripped
End of status report
Доп. информация:
Я сам удивлен, почему я до сих пор не объявил в раздачу этот диск, отсутствующий на трекере.
"Музыка сфер" Лангора - одно из наиболее часто исполнявшихся и записывавшихся (!) еще при жизни композитора, до его восстания из незаслуженного забытья.
Конечно же, в этом сочинении речь идет не о фантасмагориях Тихо Браге и Кеплера, а о привычной для композитора теме: конец света и противостояние антихриста и Христа. Лето жизни закончилось - пора поговорить о знакомой теме. Образы смерти возникают уже в первой, сравнительно безпечальной части сочинения.
Разделение оркестра на две группы с обособленным "удаленным оркестром" - не такая уж новость в музыке 20 века, но Лангор и здесь оказывается на высоте.
Написанные почти одновременно 4 симфонических картины для сопрано с оркестром, напротив, в записи издаются впервые.


Скачать торрент 216.84 МБ


Download
Для скачивания .torrent файлов необходима регистрация
Сайт не распространяет и не хранит электронные версии произведений, а лишь предоставляет доступ к создаваемому пользователями каталогу ссылок на торрент-файлы, которые содержат только списки хеш-сумм

Страница 1 из 1

Ответить на тему

   Похожие торренты   Торрент