Регистрация ·  Логин: Пароль: Запомнить   · Забыли пароль?




Ответить на тему
Статистика раздачи
Размер: 254.48 МБ | Зарегистрирован: 10 мар 2018, 13:22 | .torrent скачан: 0 раз(а)
Сидеров: [ 0  | 0 байт/сек ]   Личеров: [ 0  | 0 байт/сек ]   DHT: [ 0 / 0 ]
Автор Сообщение

Модератор
Аватара пользователя

Стаж: 6 лет
Сообщения: 7870
Молдова

Сообщение 10 мар 2018, 13:22 

[Цитировать]

Pupils Of Messiaen: A Cappella Works By Messiaen, Stockhausen And Xenakis

Жанр: Avantgarde
Год выпуска диска: 1999
Производитель диска: England
Аудио кодек: FLAC
Битрейт аудио: lossless
Тип рипа: image+.cue
Источник рипа: Собственный рип
Продолжительность: 65:51
Треклист:
O.Messiaen
Cinq rechants
1. Modere Presque Vif
2.Bien Modere
3.Lent. Caressant
4.Tres Vif
5.Vif
6."O sacrum convivinum!"
K.Stockhauzen
Chore fur Doris
7.Die Nachtigall
8.Armer Junder Hirt
9.Agnus Dei
10.Choral
Iannis Xenakis
11.A Helene
12.Nuits
13.Serment
Исполнители:
Danish National Radio Choir, conductor Jesper Grove Jorgensen
Exact Audio Copy V0.99 prebeta 5 from 4. May 2009
Отчёт EAC об извлечении, выполненном 3. октября 2010, 14:16
Messiaen, Stockhausen, Xenakis / Pupils of Messiaen
Дисковод: TSSTcorpCDDVDW TS-L633A Adapter: 0 ID: 1
Режим чтения : Достоверность
Использование точного потока : Да
Отключение кэша аудио : Да
Использование указателей C2 : Нет
Коррекция смещения при чтении : 6
Способность читать области Lead-in и Lead-out : Нет
Заполнение пропущенных сэмплов тишиной : Да
Удаление блоков с тишиной в начале и конце : Нет
При вычислениях CRC использовались нулевые сэмплы : Да
Интерфейс : Встроенный Win32-интерфейс для Win NT/2000
Выходной формат : Внутренние WAV-операции
Формат сэмплов : 44.100 Гц; 16 бит; стерео
TOC извлечённого CD
Трек | Старт | Длительность | Начальный сектор | Конечный сектор
---------------------------------------------------------------------
1 | 0:00.00 | 5:22.27 | 0 | 24176
2 | 5:22.27 | 3:05.18 | 24177 | 38069
3 | 8:27.45 | 4:16.57 | 38070 | 57326
4 | 12:44.27 | 2:41.48 | 57327 | 69449
5 | 15:26.00 | 4:06.62 | 69450 | 87961
6 | 19:32.62 | 5:22.50 | 87962 | 112161
7 | 24:55.37 | 2:35.63 | 112162 | 123849
8 | 27:31.25 | 3:04.45 | 123850 | 137694
9 | 30:35.70 | 3:06.60 | 137695 | 151704
10 | 33:42.55 | 3:48.15 | 151705 | 168819
11 | 37:30.70 | 11:24.45 | 168820 | 220164
12 | 48:55.40 | 10:07.40 | 220165 | 265729
13 | 59:03.05 | 6:48.40 | 265730 | 296369
Характеристики диапазона извлечения и сообщения об ошибках
Выбранный диапазон
Имя файла G:\музыка\ксенакис\Messiaen, Stockhausen, Xenakis - Pupils of Messiaen\Messiaen, Stockhausen, Xenakis - Pupils of Messiaen.wav
Пиковый уровень 99.1 %
Качество диапазона 100.0 %
CRC теста 0194B292
CRC копии 0194B292
Копирование... OK
Ошибок не произошло
AccurateRip: сводка
Трек 1 нет в базе данных
Трек 2 нет в базе данных
Трек 3 нет в базе данных
Трек 4 нет в базе данных
Трек 5 нет в базе данных
Трек 6 нет в базе данных
Трек 7 нет в базе данных
Трек 8 нет в базе данных
Трек 9 нет в базе данных
Трек 10 нет в базе данных
Трек 11 нет в базе данных
Трек 12 нет в базе данных
Трек 13 нет в базе данных
Ни одного трека нет в базе AccurateRip
Конец отчёта


Скачать торрент 254.48 МБ


Download
Для скачивания .torrent файлов необходима регистрация
Сайт не распространяет и не хранит электронные версии произведений, а лишь предоставляет доступ к создаваемому пользователями каталогу ссылок на торрент-файлы, которые содержат только списки хеш-сумм

Страница 1 из 1

Ответить на тему

   Похожие торренты   Торрент 




cron