Регистрация ·  Логин: Пароль: Запомнить   · Забыли пароль?




Ответить на тему
Статистика раздачи
Размер: 284.79 МБ | Зарегистрирован: 10 мар 2018, 13:23 | .torrent скачан: 0 раз(а)
Сидеров: [ 0  | 0 байт/сек ]   Личеров: [ 0  | 0 байт/сек ]   DHT: [ 0 / 0 ]
Автор Сообщение

Модератор
Аватара пользователя

Стаж: 6 лет
Сообщения: 7870
Молдова

Сообщение 10 мар 2018, 13:23 

[Цитировать]

Boston Camerata - A Renaissance Christmas

Жанр: Classical / Early Music
Страна-производитель диска: США
Год издания диска: 1986
Издатель (лейбл): Elektra/Asylum/Nonesuch Records
Номер по каталогу: 9 79134-2
Дата записи: 1986
Аудиокодек: FLAC
Тип рипа: tracks+.cue
Битрейт аудио: lossless
Продолжительность: 1:01:05
Источник: сеть
Наличие сканов в содержимом раздачи: да
Треклист:
01 - Nowell- Dieus Vous Garde
02 - Gaudete, Gaudete
03 - Reading- Luke I, 18-22
04 - Kyrie Eleison
05 - E La Don Don
06 - Two Fantasies on 'Une Jeune Fillette'
07 - Joseph Est Bien Marie
08 - Joseph, Lieber Joseph Mein
09 - Magnificat Quinti Toni
10 - Esprits Divins
11 - Reading- Luke II, 17-19
12 - Es Ist Ein Ros' Entsprungen
13 - Riu Riu Chiu
14 - Wie Schon Leuchtet Der Morgenstern
15 - Reading- Luke III, 4-12
16 - O Vos Omnes
17 - Reading- Luke II, 20-21
18 - Ungaresca
19 - Nouvelles, Nouvelles
20 - Tau Garco, La Durundena
21 - Tura Tura Lura, Lo Gau Canta
22 - Reading- Luke II, 3-8
23 - O Magnum Mysterium
24 - Singet Und Klinget, Ihr Kinderlein
25 - Bransle De Poictou
Исполнители:
Joel Cohen, director
Franc Albinder, bass
Roberta Anderson, soprano
Anne Azema, soprano
Marilyn Boenau, dulcian, recorders, ocarina, shawm, xylophone
Edmund Brownless, tenor, reader
Joel Cohen, lute, baritone
Kenneth Fitch, countertenor
Jane Hershey, bass and tenor viols, recorder
Bruce Lancaster, tenor
Carol Lewis, treble and bass viols, vielle
Mack Ramsey, sackbut, flute, recorders. lute, pipe & tabor
Fred Raffensperger, countertenor
assisted by:
Tom Coleman, contrabass
David Ripley, bass
Dan Stillman, shawm
Код:
EAC extraction logfile from 10. December 2006, 20:48 for CD
The Boston Camerata / A Renaissance Christmas
Used drive  : PLEXTOR CD-R   PX-W5224A   Adapter: 0  ID: 1
Read mode   : Secure with C2, accurate stream, disable cache
Read offset correction : 30
Overread into Lead-In and Lead-Out : Yes
Used output format : C:\Program Files\EAC\flac.exe   (User Defined Encoder)
                     320 kBit/s
                     Additional command line options : -V -T "artist=%a" -T "title=%t" -T "album=%g" -T "date=%y" -T "tracknumber=%n" -T "genre=%m" -T "comment= Compliments of Dino" %s
Other options      :
    Fill up missing offset samples with silence : Yes
    Delete leading and trailing silent blocks : No
    Installed external ASPI interface
Track  1
     Filename L:\21 NEW CHRISTMAS\Boston Camerata - A Renaissance Christmas (flac 1.1.3)\01 - Nowell- Dieus Vous Garde.wav
     Pre-gap length  0:00:02.32
     Peak level 56.1 %
     Track quality 100.0 %
     Copy CRC 25A4265B
     Copy OK
Track  2
     Filename L:\21 NEW CHRISTMAS\Boston Camerata - A Renaissance Christmas (flac 1.1.3)\02 - Gaudete, Gaudete.wav
     Peak level 46.2 %
     Track quality 100.0 %
     Copy CRC 7DE45377
     Copy OK
Track  3
     Filename L:\21 NEW CHRISTMAS\Boston Camerata - A Renaissance Christmas (flac 1.1.3)\03 - Reading- Luke I, 18-22.wav
     Peak level 37.8 %
     Track quality 100.0 %
     Copy CRC A92F07EA
     Copy OK
Track  4
     Filename L:\21 NEW CHRISTMAS\Boston Camerata - A Renaissance Christmas (flac 1.1.3)\04 - Kyrie Eleison.wav
     Peak level 61.9 %
     Track quality 100.0 %
     Copy CRC A24D6AE6
     Copy OK
Track  5
     Filename L:\21 NEW CHRISTMAS\Boston Camerata - A Renaissance Christmas (flac 1.1.3)\05 - E La Don Don.wav
     Peak level 61.5 %
     Track quality 100.0 %
     Copy CRC DCDE056A
     Copy OK
Track  6
     Filename L:\21 NEW CHRISTMAS\Boston Camerata - A Renaissance Christmas (flac 1.1.3)\06 - Two Fantasies on 'Une Jeune Fillette'.wav
     Peak level 33.7 %
     Track quality 100.0 %
     Copy CRC 438E50EE
     Copy OK
Track  7
     Filename L:\21 NEW CHRISTMAS\Boston Camerata - A Renaissance Christmas (flac 1.1.3)\07 - Joseph Est Bien Marie.wav
     Peak level 39.6 %
     Track quality 100.0 %
     Copy CRC E11C4B36
     Copy OK
Track  8
     Filename L:\21 NEW CHRISTMAS\Boston Camerata - A Renaissance Christmas (flac 1.1.3)\08 - Joseph, Lieber Joseph Mein.wav
     Peak level 38.9 %
     Track quality 99.7 %
     Copy CRC 1A23767C
     Copy OK
Track  9
     Filename L:\21 NEW CHRISTMAS\Boston Camerata - A Renaissance Christmas (flac 1.1.3)\09 - Magnificat Quinti Toni.wav
     Peak level 78.3 %
     Track quality 100.0 %
     Copy CRC 515712F0
     Copy OK
Track 10
     Filename L:\21 NEW CHRISTMAS\Boston Camerata - A Renaissance Christmas (flac 1.1.3)\10 - Esprits Divins.wav
     Peak level 65.2 %
     Track quality 100.0 %
     Copy CRC 2FAE0423
     Copy OK
Track 11
     Filename L:\21 NEW CHRISTMAS\Boston Camerata - A Renaissance Christmas (flac 1.1.3)\11 - Reading- Luke II, 17-19.wav
     Peak level 22.2 %
     Track quality 100.0 %
     Copy CRC 68810599
     Copy OK
Track 12
     Filename L:\21 NEW CHRISTMAS\Boston Camerata - A Renaissance Christmas (flac 1.1.3)\12 - Es Ist Ein Ros' Entsprungen.wav
     Peak level 42.8 %
     Track quality 100.0 %
     Copy CRC CF613BDF
     Copy OK
Track 13
     Filename L:\21 NEW CHRISTMAS\Boston Camerata - A Renaissance Christmas (flac 1.1.3)\13 - Riu Riu Chiu.wav
     Peak level 83.1 %
     Track quality 100.0 %
     Copy CRC C9AE52B5
     Copy OK
Track 14
     Filename L:\21 NEW CHRISTMAS\Boston Camerata - A Renaissance Christmas (flac 1.1.3)\14 - Wie Schon Leuchtet Der Morgenstern.wav
     Peak level 94.1 %
     Track quality 100.0 %
     Copy CRC F8E7BF7E
     Copy OK
Track 15
     Filename L:\21 NEW CHRISTMAS\Boston Camerata - A Renaissance Christmas (flac 1.1.3)\15 - Reading- Luke III, 4-12.wav
     Peak level 36.7 %
     Track quality 100.0 %
     Copy CRC 435E660A
     Copy OK
Track 16
     Filename L:\21 NEW CHRISTMAS\Boston Camerata - A Renaissance Christmas (flac 1.1.3)\16 - O Vos Omnes.wav
     Peak level 88.2 %
     Track quality 100.0 %
     Copy CRC 2B7CE361
     Copy OK
Track 17
     Filename L:\21 NEW CHRISTMAS\Boston Camerata - A Renaissance Christmas (flac 1.1.3)\17 - Reading- Luke II, 20-21.wav
     Peak level 22.1 %
     Track quality 100.0 %
     Copy CRC 59AB7271
     Copy OK
Track 18
     Filename L:\21 NEW CHRISTMAS\Boston Camerata - A Renaissance Christmas (flac 1.1.3)\18 - Ungaresca.wav
     Peak level 14.9 %
     Track quality 100.0 %
     Copy CRC A23D557D
     Copy OK
Track 19
     Filename L:\21 NEW CHRISTMAS\Boston Camerata - A Renaissance Christmas (flac 1.1.3)\19 - Nouvelles, Nouvelles.wav
     Peak level 38.8 %
     Track quality 100.0 %
     Copy CRC 05EC0A7E
     Copy OK
Track 20
     Filename L:\21 NEW CHRISTMAS\Boston Camerata - A Renaissance Christmas (flac 1.1.3)\20 - Tau Garco, La Durundena.wav
     Peak level 68.6 %
     Track quality 100.0 %
     Copy CRC 1288F575
     Copy OK
Track 21
     Filename L:\21 NEW CHRISTMAS\Boston Camerata - A Renaissance Christmas (flac 1.1.3)\21 - Tura Tura Lura, Lo Gau Canta.wav
     Peak level 66.5 %
     Track quality 100.0 %
     Copy CRC 7E68EFCF
     Copy OK
Track 22
     Filename L:\21 NEW CHRISTMAS\Boston Camerata - A Renaissance Christmas (flac 1.1.3)\22 - Reading- Luke II, 3-8.wav
     Peak level 29.8 %
     Track quality 100.0 %
     Copy CRC 7F1B72EE
     Copy OK
Track 23
     Filename L:\21 NEW CHRISTMAS\Boston Camerata - A Renaissance Christmas (flac 1.1.3)\23 - O Magnum Mysterium.wav
     Peak level 61.4 %
     Track quality 100.0 %
     Copy CRC 88479744
     Copy OK
Track 24
     Filename L:\21 NEW CHRISTMAS\Boston Camerata - A Renaissance Christmas (flac 1.1.3)\24 - Singet Und Klinget, Ihr Kinderlein.wav
     Peak level 82.6 %
     Track quality 100.0 %
     Copy CRC 1D4AE6BC
     Copy OK
Track 25
     Filename L:\21 NEW CHRISTMAS\Boston Camerata - A Renaissance Christmas (flac 1.1.3)\25 - Bransle De Poictou.wav
     Peak level 77.9 %
     Track quality 100.0 %
     Copy CRC 4D88AAD3
     Copy OK
No errors occured
End of status report
Код:
REM GENRE Chorus
REM DATE 1986
REM DISCID 770E5119
REM COMMENT "ExactAudioCopy v0.95b4"
PERFORMER "The Boston Camerata"
TITLE "A Renaissance Christmas"
FILE "01 - Nowell- Dieus Vous Garde.flac" WAVE
  TRACK 01 AUDIO
    TITLE "Nowell: Dieus Vous Garde"
    PERFORMER "The Boston Camerata"
    PREGAP 00:00:32
    INDEX 01 00:00:00
FILE "02 - Gaudete, Gaudete.flac" WAVE
  TRACK 02 AUDIO
    TITLE "Gaudete, Gaudete"
    PERFORMER "The Boston Camerata"
    INDEX 01 00:00:00
FILE "03 - Reading- Luke I, 18-22.flac" WAVE
  TRACK 03 AUDIO
    TITLE "Reading: Luke I, 18-22"
    PERFORMER "The Boston Camerata"
    INDEX 01 00:00:00
FILE "04 - Kyrie Eleison.flac" WAVE
  TRACK 04 AUDIO
    TITLE "Kyrie Eleison"
    PERFORMER "The Boston Camerata"
    INDEX 01 00:00:00
FILE "05 - E La Don Don.flac" WAVE
  TRACK 05 AUDIO
    TITLE "E La Don Don"
    PERFORMER "The Boston Camerata"
    INDEX 01 00:00:00
FILE "06 - Two Fantasies on 'Une Jeune Fillette'.flac" WAVE
  TRACK 06 AUDIO
    TITLE "Two Fantasies on 'Une Jeune Fillette'"
    PERFORMER "The Boston Camerata"
    INDEX 01 00:00:00
FILE "07 - Joseph Est Bien Marie.flac" WAVE
  TRACK 07 AUDIO
    TITLE "Joseph Est Bien Marie"
    PERFORMER "The Boston Camerata"
    INDEX 01 00:00:00
FILE "08 - Joseph, Lieber Joseph Mein.flac" WAVE
  TRACK 08 AUDIO
    TITLE "Joseph, Lieber Joseph Mein"
    PERFORMER "The Boston Camerata"
    INDEX 01 00:00:00
FILE "09 - Magnificat Quinti Toni.flac" WAVE
  TRACK 09 AUDIO
    TITLE "Magnificat Quinti Toni"
    PERFORMER "The Boston Camerata"
    INDEX 01 00:00:00
FILE "10 - Esprits Divins.flac" WAVE
  TRACK 10 AUDIO
    TITLE "Esprits Divins"
    PERFORMER "The Boston Camerata"
    INDEX 01 00:00:00
FILE "11 - Reading- Luke II, 17-19.flac" WAVE
  TRACK 11 AUDIO
    TITLE "Reading: Luke II, 17-19"
    PERFORMER "The Boston Camerata"
    INDEX 01 00:00:00
FILE "12 - Es Ist Ein Ros' Entsprungen.flac" WAVE
  TRACK 12 AUDIO
    TITLE "Es Ist Ein Ros' Entsprungen"
    PERFORMER "The Boston Camerata"
    INDEX 01 00:00:00
FILE "13 - Riu Riu Chiu.flac" WAVE
  TRACK 13 AUDIO
    TITLE "Riu Riu Chiu"
    PERFORMER "The Boston Camerata"
    INDEX 01 00:00:00
FILE "14 - Wie Schon Leuchtet Der Morgenstern.flac" WAVE
  TRACK 14 AUDIO
    TITLE "Wie Schon Leuchtet Der Morgenstern"
    PERFORMER "The Boston Camerata"
    INDEX 01 00:00:00
FILE "15 - Reading- Luke III, 4-12.flac" WAVE
  TRACK 15 AUDIO
    TITLE "Reading: Luke III, 4-12"
    PERFORMER "The Boston Camerata"
    INDEX 01 00:00:00
FILE "16 - O Vos Omnes.flac" WAVE
  TRACK 16 AUDIO
    TITLE "O Vos Omnes"
    PERFORMER "The Boston Camerata"
    INDEX 01 00:00:00
FILE "17 - Reading- Luke II, 20-21.flac" WAVE
  TRACK 17 AUDIO
    TITLE "Reading: Luke II, 20-21"
    PERFORMER "The Boston Camerata"
    INDEX 01 00:00:00
FILE "18 - Ungaresca.flac" WAVE
  TRACK 18 AUDIO
    TITLE "Ungaresca"
    PERFORMER "The Boston Camerata"
    INDEX 01 00:00:00
FILE "19 - Nouvelles, Nouvelles.flac" WAVE
  TRACK 19 AUDIO
    TITLE "Nouvelles, Nouvelles"
    PERFORMER "The Boston Camerata"
    INDEX 01 00:00:00
FILE "20 - Tau Garco, La Durundena.flac" WAVE
  TRACK 20 AUDIO
    TITLE "Tau Garco, La Durundena"
    PERFORMER "The Boston Camerata"
    INDEX 01 00:00:00
FILE "21 - Tura Tura Lura, Lo Gau Canta.flac" WAVE
  TRACK 21 AUDIO
    TITLE "Tura Tura Lura, Lo Gau Canta"
    PERFORMER "The Boston Camerata"
    INDEX 01 00:00:00
FILE "22 - Reading- Luke II, 3-8.flac" WAVE
  TRACK 22 AUDIO
    TITLE "Reading: Luke II, 3-8"
    PERFORMER "The Boston Camerata"
    INDEX 01 00:00:00
FILE "23 - O Magnum Mysterium.flac" WAVE
  TRACK 23 AUDIO
    TITLE "O Magnum Mysterium"
    PERFORMER "The Boston Camerata"
    INDEX 01 00:00:00
FILE "24 - Singet Und Klinget, Ihr Kinderlein.flac" WAVE
  TRACK 24 AUDIO
    TITLE "Singet Und Klinget, Ihr Kinderlein"
    PERFORMER "The Boston Camerata"
    INDEX 01 00:00:00
FILE "25 - Bransle De Poictou.flac" WAVE
  TRACK 25 AUDIO
    TITLE "Bransle De Poictou"
    PERFORMER "The Boston Camerata"
    INDEX 01 00:00:00
Код:
AUDIOCHECKER v2.0 beta (build 457) - by Dester - [email protected]
~~~~~~~~~~~~~~~~~~~~~~~~~~~~~~~~~~
-=== DO NOT EDIT THIS FILE! ===-
Path: ...\Boston Camerata - A Renaissance Christmas
01 -=- 25 - Bransle De Poictou.flac -=- CDDA (100%)
02 -=- 01 - Nowell- Dieus Vous Garde.flac -=- CDDA (100%)
03 -=- 02 - Gaudete, Gaudete.flac -=- CDDA (100%)
04 -=- 03 - Reading- Luke I, 18-22.flac -=- CDDA (100%)
05 -=- 04 - Kyrie Eleison.flac -=- CDDA (100%)
06 -=- 05 - E La Don Don.flac -=- CDDA (100%)
07 -=- 06 - Two Fantasies on 'Une Jeune Fillette'.flac -=- CDDA (100%)
08 -=- 07 - Joseph Est Bien Marie.flac -=- CDDA (99%)
09 -=- 08 - Joseph, Lieber Joseph Mein.flac -=- CDDA (100%)
10 -=- 09 - Magnificat Quinti Toni.flac -=- CDDA (100%)
11 -=- 10 - Esprits Divins.flac -=- CDDA (100%)
12 -=- 11 - Reading- Luke II, 17-19.flac -=- CDDA (100%)
13 -=- 12 - Es Ist Ein Ros' Entsprungen.flac -=- CDDA (100%)
14 -=- 13 - Riu Riu Chiu.flac -=- CDDA (100%)
15 -=- 14 - Wie Schon Leuchtet Der Morgenstern.flac -=- CDDA (99%)
16 -=- 15 - Reading- Luke III, 4-12.flac -=- CDDA (100%)
17 -=- 16 - O Vos Omnes.flac -=- CDDA (100%)
18 -=- 17 - Reading- Luke II, 20-21.flac -=- CDDA (100%)
19 -=- 18 - Ungaresca.flac -=- CDDA (100%)
20 -=- 19 - Nouvelles, Nouvelles.flac -=- CDDA (100%)
21 -=- 20 - Tau Garco, La Durundena.flac -=- CDDA (100%)
22 -=- 21 - Tura Tura Lura, Lo Gau Canta.flac -=- CDDA (100%)
23 -=- 22 - Reading- Luke II, 3-8.flac -=- CDDA (100%)
24 -=- 23 - O Magnum Mysterium.flac -=- CDDA (99%)
25 -=- 24 - Singet Und Klinget, Ihr Kinderlein.flac -=- CDDA (100%)
Summary 99,88% CDDA
96342452
Код:
[url=http://fastpic.ru/view/12/2011/0112/3a2e75c9fb2dfa12bad659817f8801fd.gif.html][img]http://i12.fastpic.ru/thumb/2011/0112/fd/3a2e75c9fb2dfa12bad659817f8801fd.jpeg[/img][/url]
























Код:
[CUETools log; Date: 12.01.2011 14:56:05; Version: 2.0.9]
Pregap length 00:00:32.
[AccurateRip ID: 00396cc9-03f29d24-770e5119] found.
Track   [ CRC    ] Status
 01     [b49aa29d] (10/10) Accurately ripped
 02     [14b9a142] (11/11) Accurately ripped
 03     [ab93cf99] (10/10) Accurately ripped
 04     [37a49287] (11/11) Accurately ripped
 05     [a61b6d60] (11/11) Accurately ripped
 06     [28cab49c] (11/11) Accurately ripped
 07     [d5df0785] (11/11) Accurately ripped
 08     [2d9427e6] (11/11) Accurately ripped
 09     [29f89948] (11/11) Accurately ripped
 10     [4e00f2a2] (11/11) Accurately ripped
 11     [5ef522c8] (11/11) Accurately ripped
 12     [7b6942b5] (11/11) Accurately ripped
 13     [68ddf0c5] (12/12) Accurately ripped
 14     [b01c6946] (11/11) Accurately ripped
 15     [b1100993] (11/11) Accurately ripped
 16     [7c34e791] (10/10) Accurately ripped
 17     [8a02d61c] (11/11) Accurately ripped
 18     [0370ef9e] (10/10) Accurately ripped
 19     [c0794249] (11/11) Accurately ripped
 20     [e0deca54] (11/11) Accurately ripped
 21     [a470c557] (09/09) Accurately ripped
 22     [bd3840fb] (11/11) Accurately ripped
 23     [5a7b80d1] (10/10) Accurately ripped
 24     [0f8b6e69] (10/10) Accurately ripped
 25     [823b24fa] (10/10) Accurately ripped
Track Peak [ CRC32  ] [W/O NULL] [  LOG   ]
 --   94,1 [AA376C6C] [0DAA6E10]
 01   56,1 [25A4265B] [9B70B238]   CRC32
 02   46,2 [7DE45377] [4CB6F53E]   CRC32
 03   37,8 [A92F07EA] [63E82A4E]   CRC32
 04   61,9 [A24D6AE6] [B3E769E9]   CRC32
 05   61,5 [DCDE056A] [3CB32BFC]   CRC32
 06   33,7 [438E50EE] [176895E5]   CRC32
 07   39,6 [E11C4B36] [5EBBB7A5]   CRC32
 08   38,9 [1A23767C] [486A0ED0]   CRC32
 09   78,3 [515712F0] [5ED09DF0]   CRC32
 10   65,2 [2FAE0423] [7A618755]   CRC32
 11   22,2 [68810599] [0782C669]   CRC32
 12   42,8 [CF613BDF] [BEF627EA]   CRC32
 13   83,1 [C9AE52B5] [174A401B]   CRC32
 14   94,1 [F8E7BF7E] [C35E6538]   CRC32
 15   36,7 [435E660A] [AE5405DC]   CRC32
 16   88,2 [2B7CE361] [23A9A451]   CRC32
 17   22,1 [59AB7271] [E7DA06C5]   CRC32
 18   14,9 [A23D557D] [70E8BCEE]   CRC32
 19   38,8 [05EC0A7E] [35D761FE]   CRC32
 20   68,6 [1288F575] [84EB6957]   CRC32
 21   66,5 [7E68EFCF] [4B626289]   CRC32
 22   29,8 [7F1B72EE] [0AB3001B]   CRC32
 23   61,4 [88479744] [ECCAF8C2]   CRC32
 24   82,6 [1D4AE6BC] [76E5C577]   CRC32
 25   77,9 [4D88AAD3] [5DA37BBB]   CRC32


Скачать торрент 284.79 МБ


Download
Для скачивания .torrent файлов необходима регистрация
Сайт не распространяет и не хранит электронные версии произведений, а лишь предоставляет доступ к создаваемому пользователями каталогу ссылок на торрент-файлы, которые содержат только списки хеш-сумм

Страница 1 из 1

Ответить на тему

   Похожие торренты   Торрент