Регистрация ·  Логин: Пароль: Запомнить   · Забыли пароль?




Ответить на тему
Статистика раздачи
Размер: 2.78 ГБ | Зарегистрирован: 10 мар 2018, 13:23 | .torrent скачан: 0 раз(а)
Сидеров: [ 0  | 0 байт/сек ]   Личеров: [ 0  | 0 байт/сек ]   DHT: [ 0 / 0 ]
Автор Сообщение

Модератор
Аватара пользователя

Стаж: 6 лет
Сообщения: 7870
Молдова

Сообщение 10 мар 2018, 13:23 

[Цитировать]

Schumann - Complete Lieder - Graham Johnes, Various Singers

Жанр: Lied
Страна-производитель диска: UK
Год издания диска: 1995-2007
Издатель (лейбл): Hyperion
Номер по каталогу: CDJ 33101-11
Дата записи: 1995-2007
Аудиокодек: FLAC
Тип рипа: image+.cue
Битрейт аудио: lossless
Продолжительность: 13:56:39
Источник: собственный рип
Наличие сканов в содержимом раздачи: да
CD 1
[01] Röselein, Röselein! Op. 89 No. 6
[02] Mädchen-Schwermut Op. 142 No. 3
[03] Die Blume der Ergebung Op. 83 No. 2
[04] Melancholie Op. 74 No. 6
[05] Zigeunerliedchen I Op. 79 No. 7a
[06] Zigeunerliedchen II Op. 79 No. 7b
[07] Die Meerfee Op. 125 No. 1
[08]-[13] Sechs Gesänge Op. 107
[14] Ihre Stimme Op. 96 No. 3
[15] Nachtlied Op. 96 No. 1
[16] Singet nicht In Trauertönen Op. 98a No. 7
[17] Nur wer die Sehnsucht kennt Op. 98a No. 3
[18] Heiss' mich nicht reden Op. 98a No. 5
[19] So lasst mich scheinen Op. 98a No. 9
[20] Mignon (Kennst du das Land?) Op. 98a No. 1
[21]-[27] Gedichte und Requiem Op. 90
[28] Das verlassene Mägdlein Op. 64 No. 2
[29] Er ist's! Op. 79 No. 23
[30] Warnung Op. 119 No. 2
[31] Sängers Trost Op. 127 No. 1
[32] Aufträge, Op. 77 No. 5
Christine Schäfer (soprano)
CD 2
[01] Ballade des Harfners Op. 98a No. 2
[02] Wer nie sein Brot mit Tränen ass Op. 98a No. 4
[03] Wer sich der Einsamkeit ergibt Op. 98a No. 6
[04] An die Türen will ich schleichen, Op. 98a No. 8
[05]-[08] Vier Husarenlieder Op. 117
[09]-[11] Drei Gedichte von Emanuel Geibel Op. 30
[12] Die Löwenbraut Op. 31 No. 1
[13]-[24] Gedichte von Justinus Kerner Op. 35
Simon Keenlyside (baritone)
CD 3
[01] Loreley Op. 53 No. 2
[02] Jasminenstrauch Op. 27 No. 4
[03] Sag' an, o lieber Vogel mein Op. 27 No. 1
[04] Die Kartenlegerin Op. 31 No. 2
[05] Blondels Lied Op. 53 No. 1
[06]-[14] Frauenliebe und -leben, Op. 42
[15] Geisternähe Op. 77 No. 3
[16] Die Soldatenbraut Op. 64 No. 1
[17] Schneeglöckchen Op. 96 No. 2
[18] Stiller Vorwurf Op. 77 No. 4
[19] Gesungen! Op. 96 No. 4
[20] Himmel und Erde Op. 96 No. 5
[21]-[28] Sieben Lieder Op. 104
[29]-[33] Gedichte der Königin Maria Stuart Op. 135
Juliane Banse (soprano)
CD 4
[01]-[05] Lieder und Gesänge Op. 51
[06]-[08] Romanzen und Balladen I Op. 45
[09] Sommerlied Op.146 No. 4
[10] O weh des Scheidens [Clara Schumann]
[11] An die Sterne Op. 141 No. 1
[12]-[23] Zwölf Gedichte aus Liebesfrühling Op. 37 [Nos. 2, 4 & 11: Clara Schumann]
[24] Die Hütte Op. 119 No. 1
[25] Der Brautigam und die Birke Op. 119 No. 3
[26] Husarenabzug Op. 125 No. 2
[27] Frühlingslust Op. 125 No. 5
[28] Frühlingslied Op. 125 No. 4
[29] Jung Volkers Lied Op. 125 No. 3
[30] Gute Nacht Op. 59 No. 4
[31] Die gute Nacht, die ich dir sage [Clara Schumann]
Stella Doufexis (mezzo soprano), Oliver Widmer (baritone)
CD 5
[01] Belsatzar Op. 57
[02] Die Minnesanger Op. 33 No. 2
[03] Die feindlichen Brüder Op. 49 No. 2
[04] Die Lotosblume Op. 25 No. 7
[05] Die Lotosblume Op. 33 No. 3
[06] Lehn deine Wang' an meine Wang' Op. 142 No. 2
[07] Dein Angesicht Op. 127 No. 2
[08] Es leuchtet meine Liebe Op. 127 No. 3
[09] Mein Wagen rollet langsam Op. 142 No. 4
[10] Sie liebten sich beide [Clara Schumann]
[11] Ihr Bildnis [Clara Schumann]
[12] Lorelei [Clara Schumann]
[13] Volkslied [Clara Schumann]
[14] Die beiden Grenadiere Op. 49 No. 1
[15]-[17] Tragoedie Op. 64 No. 3
[18]-[20] Der arme Peter Op. 53 No. 3
[21]-[36] Dichterliebe Op. 48
Christopher Maltman (baritone)
CD 6
[01]-[10] Spanisches Liederspiel Op. 74
[11]-[15] Fünf Lieder Op. 40
[16]-[21] Sechs Lieder aus "Jucunde" Op. 23 [Clara Schumann]
[22]-[31] Spanische Liebeslieder Op. 138
Geraldine McGreevy (soprano), Stella Doufexis (alto), Adrian Thompson (tenor), Stepan Loges (baritone)
CD 7
[01]-[04] Duette Op. 34
[05]-[30] Myrten Op. 25
[31] John Anderson Op. 145 No. 4
[32]-[35] Duette Op. 78
Dorothea Röschmann (soprano), Ian Bostridge (tenor)
CD 8
[01] Sehnsucht WoO 121
[02] Die Weinende WoO 121
[03] Der Fischer WoO 19
[04] Im Herbste Op. Posth.
[05] Kurze Erwachen
[06] An Anna I
[07] Gesanges Erwachen
[08] An Anna II
[09] Der Wanderer
[10] Der Wanderer in der Sägemühle
[11] Erinnerung
[12] Hirtenknabe
[13] Schlusslied des Narren
[14]-[22] Liederkreis Op. 24
[23] Dem roten Röslein gleicht mein Lieb
[24] Der frohe Wandersmann Op. 77 No. 1
[25] Die rote Hanne Op. 31 No. 3
[26] Die nächtliche Heerschau
[27] Nur ein lächelnder Blick
[28] Ein Gedanke
[29] Der Reiter und der Bodensee
[30] Trost im Gesang Op. 142 No. 1
[31] Der deutscher Rhein
Mark Padmore (tenor), Jonathan Lemalu (baritone), Christopher Maltman (baritone)
CD 9
[01] Liedchen von Marie und Papa WoO 26 No. 3
[02]-[45] Liederalbum für die Jugend Op. 79, with Piano Pieces from Klavieralbum für die Jugend Op. 68
[46] Soldatenlied WoO 6
Felicity Lott (soprano), Ann Murray (soprano)
CD 10
[01]-[12] Liederkreis Op. 39
[13] Schön Hedwig Op. 106
[14]-[15] Zwei Balladen Op. 122 Nos. 1 & 2
[16]-[18] Drei Gedichte Op. 29
[19] Die Nonne Op. 49 No. 3
[20] Was soll ich sagen? Op. 27 No. 3
[21] Frühlingsgruss Op. 79 No. 4
[22]-[24] Drei Duette Op. 43
[25] Mein Garten Op. 77 No. 2
[26] Sommerruh WoO7
[27]-[30] Mädchenlieder Op. 103
[31] Bei Schenkung eines Flügels WoO 26 No. 4
Kate Royal (soprano), Felicity Lott (soprano), Ann Murray (mezzo-soprano), Christoph Bantzer (reciter)
CD 11
[01] Es stürmet am Abendhimmel Op. 89 No. 1
[02] Heimliches Verschwinden Op. 89 No. 2
[03] Herbstlied Op. 89 No. 3
[04] Abschied vom Walde Op. 89 No. 4
[05] Ins Freie Op. 89 No. 5
[06] Resignation Op. 83 No. 1
[07] Der Einsiedler Op. 83 No. 3
[08] Mein altes Roß Op. 127 No. 4
[09]-[11] Drei Gesänge Op. 95
[12]-[19] Minnespiel Op. 101
[20]-[25] Sechs Gedichte aus dem Liederbuch eines Malers Op. 36
[26] Provençalisches Lied Op. 139 No. 4
[27] Ballade Op. 139 No. 7
[28] Der Handschuh Op. 87
Hanno Müller-Brachmann (baritone), with Katherine Broderick, Geraldine McGreevy (sopranos), Stella Doufexis (mezzo soprano), Adrian Thompson, Stephan Loges (baritone)
Исполнители:
Christine Schäfer, Juliane Banse, Geraldine McGreevy, Dorothea Röschmann, Felicity Lott, Ann Murray, Kate Royal, Katherine Broderick (sopranos)
Stella Doufexis (alto)
Adrian Thompson, Ian Bostridge, Mark Padmore (tenors)
Hanno Müller-Brachmann, Simon Keenlyside, Oliver Widmer, Christopher Maltman, Stephan Loges, Adrian Thompson, Jonathan Lemalu (baritones)
Christoph Bantzer (reciter)
Graham Johnson (piano)
[code][/code]
Exact Audio Copy V1.0 beta 3 from 29. August 2011
EAC extraction logfile from 16. July 2012, 19:02
Johnson - Schafer / Schumann Songs
Used drive : HL-DT-STRW/DVD GCC-T10N Adapter: 1 ID: 0
Read mode : Secure
Utilize accurate stream : Yes
Defeat audio cache : Yes
Make use of C2 pointers : No
Read offset correction : 102
Overread into Lead-In and Lead-Out : No
Fill up missing offset samples with silence : Yes
Delete leading and trailing silent blocks : No
Null samples used in CRC calculations : Yes
Used interface : Native Win32 interface for Win NT & 2000
Used output format : User Defined Encoder
Selected bitrate : 128 kBit/s
Quality : High
Add ID3 tag : No
Command line compressor : C:\Program Files\Exact Audio Copy\Flac\flac.exe
Additional command line options : -8 -V -T "ARTIST=%artist%" -T "TITLE=%title%" -T "ALBUM=%albumtitle%" -T "DATE=%year%" -T "TRACKNUMBER=%tracknr%" -T "GENRE=%genre%" -T "PERFORMER=%albuminterpret%" -T "COMPOSER=%composer%" %haslyrics%--tag-from-file=LYRICS="%lyricsfile%"%haslyrics% -T "ALBUMARTIST=%albumartist%" -T "DISCNUMBER=%cdnumber%" -T "TOTALDISCS=%totalcds%" -T "TOTALTRACKS=%numtracks%" -T "COMMENT=%comment%" %source% -o %dest%
TOC of the extracted CD
Track | Start | Length | Start sector | End sector
---------------------------------------------------------
1 | 0:00.00 | 2:26.22 | 0 | 10971
2 | 2:26.22 | 2:45.25 | 10972 | 23371
3 | 5:11.47 | 3:01.58 | 23372 | 37004
4 | 8:13.30 | 2:22.25 | 37005 | 47679
5 | 10:35.55 | 1:06.70 | 47680 | 52699
6 | 11:42.50 | 1:42.37 | 52700 | 60386
7 | 13:25.12 | 1:15.15 | 60387 | 66026
8 | 14:40.27 | 1:53.20 | 66027 | 74521
9 | 16:33.47 | 2:01.13 | 74522 | 83609
10 | 18:34.60 | 1:25.69 | 83610 | 90053
11 | 20:00.54 | 1:24.08 | 90054 | 96361
12 | 21:24.62 | 2:01.33 | 96362 | 105469
13 | 23:26.20 | 2:22.15 | 105470 | 116134
14 | 25:48.35 | 2:27.62 | 116135 | 127221
15 | 28:16.22 | 2:28.30 | 127222 | 138351
16 | 30:44.52 | 2:37.25 | 138352 | 150151
17 | 33:22.02 | 2:21.13 | 150152 | 160739
18 | 35:43.15 | 3:21.00 | 160740 | 175814
19 | 39:04.15 | 3:16.50 | 175815 | 190564
20 | 42:20.65 | 4:06.50 | 190565 | 209064
21 | 46:27.40 | 1:35.60 | 209065 | 216249
22 | 48:03.25 | 3:25.47 | 216250 | 231671
23 | 51:28.72 | 1:24.13 | 231672 | 237984
24 | 52:53.10 | 2:23.24 | 237985 | 248733
25 | 55:16.34 | 3:11.06 | 248734 | 263064
26 | 58:27.40 | 2:09.35 | 263065 | 272774
27 | 60:37.00 | 4:03.40 | 272775 | 291039
28 | 64:40.40 | 2:02.57 | 291040 | 300246
29 | 66:43.22 | 1:25.23 | 300247 | 306644
30 | 68:08.45 | 2:13.60 | 306645 | 316679
31 | 70:22.30 | 2:30.25 | 316680 | 327954
32 | 72:52.55 | 2:16.35 | 327955 | 338189
Range status and errors
Selected range
Filename C:\Documents and Settings\Мария\Рабочий стол\TEMP\Schumann\CD 1\Johnson - Schafer - Schumann Songs.wav
Peak level 99.8 %
Extraction speed 4.4 X
Range quality 99.9 %
Copy CRC 6857EF36
Copy OK
No errors occurred
AccurateRip summary
Track 1 accurately ripped (confidence 8) [26450E3A] (AR v1)
Track 2 accurately ripped (confidence 8) [7584675A] (AR v1)
Track 3 accurately ripped (confidence 8) [43DD2892] (AR v1)
Track 4 accurately ripped (confidence 8) [1C947F12] (AR v1)
Track 5 accurately ripped (confidence 8) [9F2ADD16] (AR v1)
Track 6 accurately ripped (confidence 8) [0B457F9F] (AR v1)
Track 7 accurately ripped (confidence 8) [D823BC8A] (AR v1)
Track 8 accurately ripped (confidence 8) [83CE605C] (AR v1)
Track 9 accurately ripped (confidence 8) [EC1FD286] (AR v1)
Track 10 accurately ripped (confidence 8) [D719F10B] (AR v1)
Track 11 accurately ripped (confidence 8) [E38075D5] (AR v1)
Track 12 accurately ripped (confidence 8) [D1B62FCB] (AR v1)
Track 13 accurately ripped (confidence 8) [914866B9] (AR v1)
Track 14 accurately ripped (confidence 8) [0B9C381B] (AR v1)
Track 15 accurately ripped (confidence 8) [097EC268] (AR v1)
Track 16 accurately ripped (confidence 8) [FE65F847] (AR v1)
Track 17 accurately ripped (confidence 8) [76380716] (AR v1)
Track 18 accurately ripped (confidence 8) [37A409BC] (AR v1)
Track 19 accurately ripped (confidence 8) [F219B870] (AR v1)
Track 20 accurately ripped (confidence 8) [48ECE9A5] (AR v1)
Track 21 accurately ripped (confidence 8) [CD7431CB] (AR v1)
Track 22 accurately ripped (confidence 8) [AFA09DDF] (AR v1)
Track 23 accurately ripped (confidence 7) [831A6E48] (AR v1)
Track 24 accurately ripped (confidence 7) [9B6C892D] (AR v1)
Track 25 accurately ripped (confidence 8) [F08AC634] (AR v1)
Track 26 accurately ripped (confidence 7) [E6798328] (AR v1)
Track 27 accurately ripped (confidence 8) [1A3771E7] (AR v1)
Track 28 accurately ripped (confidence 8) [D8A43D8E] (AR v1)
Track 29 accurately ripped (confidence 8) [EE8741FA] (AR v1)
Track 30 accurately ripped (confidence 8) [14FE3F2D] (AR v1)
Track 31 accurately ripped (confidence 8) [B6F7F853] (AR v1)
Track 32 accurately ripped (confidence 8) [198A3EFE] (AR v1)
All tracks accurately ripped
End of status report
==== Log checksum 4268B52C1A03E6567CC464061A6E7F1EA4D593151D0DADB7F03B95CEFFF93AA7 ====
Exact Audio Copy V1.0 beta 3 from 29. August 2011
EAC extraction logfile from 24. July 2012, 14:45
Simon Keenlyside, baritone - Graham Johnson, piano / Schumann songs 2
Used drive : HL-DT-STRW/DVD GCC-T10N Adapter: 1 ID: 0
Read mode : Secure
Utilize accurate stream : Yes
Defeat audio cache : Yes
Make use of C2 pointers : No
Read offset correction : 102
Overread into Lead-In and Lead-Out : No
Fill up missing offset samples with silence : Yes
Delete leading and trailing silent blocks : No
Null samples used in CRC calculations : Yes
Used interface : Native Win32 interface for Win NT & 2000
Used output format : User Defined Encoder
Selected bitrate : 128 kBit/s
Quality : High
Add ID3 tag : No
Command line compressor : C:\Program Files\Exact Audio Copy\Flac\flac.exe
Additional command line options : -8 -V -T "ARTIST=%artist%" -T "TITLE=%title%" -T "ALBUM=%albumtitle%" -T "DATE=%year%" -T "TRACKNUMBER=%tracknr%" -T "GENRE=%genre%" -T "PERFORMER=%albuminterpret%" -T "COMPOSER=%composer%" %haslyrics%--tag-from-file=LYRICS="%lyricsfile%"%haslyrics% -T "ALBUMARTIST=%albumartist%" -T "DISCNUMBER=%cdnumber%" -T "TOTALDISCS=%totalcds%" -T "TOTALTRACKS=%numtracks%" -T "COMMENT=%comment%" %source% -o %dest%
TOC of the extracted CD
Track | Start | Length | Start sector | End sector
---------------------------------------------------------
1 | 0:00.00 | 6:00.72 | 0 | 27071
2 | 6:00.72 | 2:41.68 | 27072 | 39214
3 | 8:42.65 | 2:56.55 | 39215 | 52469
4 | 11:39.45 | 2:15.60 | 52470 | 62654
5 | 13:55.30 | 1:00.12 | 62655 | 67166
6 | 14:55.42 | 2:29.03 | 67167 | 78344
7 | 17:24.45 | 1:02.57 | 78345 | 83051
8 | 18:27.27 | 1:36.53 | 83052 | 90304
9 | 20:04.05 | 2:20.47 | 90305 | 100851
10 | 22:24.52 | 2:55.65 | 100852 | 114041
11 | 25:20.42 | 3:21.50 | 114042 | 129166
12 | 28:42.17 | 7:41.30 | 129167 | 163771
13 | 36:23.47 | 1:47.33 | 163772 | 171829
14 | 38:11.05 | 5:40.10 | 171830 | 197339
15 | 43:51.15 | 3:16.35 | 197340 | 212074
16 | 47:07.50 | 2:14.70 | 212075 | 222194
17 | 49:22.45 | 2:34.25 | 222195 | 233769
18 | 51:56.70 | 4:33.42 | 233770 | 254286
19 | 56:30.37 | 1:32.08 | 254287 | 261194
20 | 58:02.45 | 3:14.62 | 261195 | 275806
21 | 61:17.32 | 1:20.03 | 275807 | 281809
22 | 62:37.35 | 3:33.17 | 281810 | 297801
23 | 66:10.52 | 2:01.28 | 297802 | 306904
24 | 68:12.05 | 2:12.25 | 306905 | 316829
Range status and errors
Selected range
Filename C:\Documents and Settings\Мария\Рабочий стол\TEMP\Schumann\CD 2\Simon Keenlyside, baritone - Graham Johnson, piano - Schumann songs 2.wav
Peak level 94.7 %
Extraction speed 3.5 X
Range quality 100.0 %
Copy CRC E30DAC4F
Copy OK
No errors occurred
AccurateRip summary
Track 1 accurately ripped (confidence 7) [D5C39850] (AR v1)
Track 2 accurately ripped (confidence 7) [E7B0C043] (AR v1)
Track 3 accurately ripped (confidence 7) [52B4A579] (AR v1)
Track 4 accurately ripped (confidence 7) [43F5C0F6] (AR v1)
Track 5 accurately ripped (confidence 7) [DF4626F5] (AR v1)
Track 6 accurately ripped (confidence 7) [8DA408AA] (AR v1)
Track 7 accurately ripped (confidence 7) [5B7093F2] (AR v1)
Track 8 accurately ripped (confidence 7) [B8D5C959] (AR v1)
Track 9 accurately ripped (confidence 7) [B512AC82] (AR v1)
Track 10 accurately ripped (confidence 7) [ADE6E006] (AR v1)
Track 11 accurately ripped (confidence 7) [BE69627C] (AR v1)
Track 12 accurately ripped (confidence 7) [8101453F] (AR v1)
Track 13 accurately ripped (confidence 7) [1DAF6D28] (AR v1)
Track 14 accurately ripped (confidence 7) [93A685B3] (AR v1)
Track 15 accurately ripped (confidence 7) [D3D09D2A] (AR v1)
Track 16 accurately ripped (confidence 7) [C92DB847] (AR v1)
Track 17 accurately ripped (confidence 7) [D9536F51] (AR v1)
Track 18 accurately ripped (confidence 7) [D37B2D74] (AR v1)
Track 19 accurately ripped (confidence 7) [2E77159B] (AR v1)
Track 20 accurately ripped (confidence 7) [1472D3A6] (AR v1)
Track 21 accurately ripped (confidence 7) [9C2D3D9C] (AR v1)
Track 22 accurately ripped (confidence 7) [086479B2] (AR v1)
Track 23 accurately ripped (confidence 7) [79F96604] (AR v1)
Track 24 accurately ripped (confidence 7) [BB49F221] (AR v1)
All tracks accurately ripped
End of status report
==== Log checksum B08E3064B0FCD65B6C09E5EDB1165B148E6459890E56BC4EE8F2F77E70AD7276 ====
Exact Audio Copy V1.0 beta 3 from 29. August 2011
EAC extraction logfile from 24. July 2012, 15:06
Juliane Banse - Graham Johnson / The Songs of Robert Schumann - 3
Used drive : HL-DT-STRW/DVD GCC-T10N Adapter: 1 ID: 0
Read mode : Secure
Utilize accurate stream : Yes
Defeat audio cache : Yes
Make use of C2 pointers : No
Read offset correction : 102
Overread into Lead-In and Lead-Out : No
Fill up missing offset samples with silence : Yes
Delete leading and trailing silent blocks : No
Null samples used in CRC calculations : Yes
Used interface : Native Win32 interface for Win NT & 2000
Used output format : User Defined Encoder
Selected bitrate : 128 kBit/s
Quality : High
Add ID3 tag : No
Command line compressor : C:\Program Files\Exact Audio Copy\Flac\flac.exe
Additional command line options : -8 -V -T "ARTIST=%artist%" -T "TITLE=%title%" -T "ALBUM=%albumtitle%" -T "DATE=%year%" -T "TRACKNUMBER=%tracknr%" -T "GENRE=%genre%" -T "PERFORMER=%albuminterpret%" -T "COMPOSER=%composer%" %haslyrics%--tag-from-file=LYRICS="%lyricsfile%"%haslyrics% -T "ALBUMARTIST=%albumartist%" -T "DISCNUMBER=%cdnumber%" -T "TOTALDISCS=%totalcds%" -T "TOTALTRACKS=%numtracks%" -T "COMMENT=%comment%" %source% -o %dest%
TOC of the extracted CD
Track | Start | Length | Start sector | End sector
---------------------------------------------------------
1 | 0:00.41 | 1:32.35 | 41 | 6975
2 | 1:33.01 | 0:49.48 | 6976 | 10698
3 | 2:22.49 | 1:49.13 | 10699 | 18886
4 | 4:11.62 | 3:32.26 | 18887 | 34812
5 | 7:44.13 | 5:27.03 | 34813 | 59340
6 | 13:11.16 | 2:47.34 | 59341 | 71899
7 | 15:58.50 | 3:17.63 | 71900 | 86737
8 | 19:16.38 | 1:39.48 | 86738 | 94210
9 | 20:56.11 | 2:47.53 | 94211 | 106788
10 | 23:43.64 | 1:58.55 | 106789 | 115693
11 | 25:42.44 | 4:30.24 | 115694 | 135967
12 | 30:12.68 | 1:26.63 | 135968 | 142480
13 | 31:39.56 | 4:04.21 | 142481 | 160801
14 | 35:44.02 | 1:55.00 | 160802 | 169426
15 | 37:39.02 | 2:01.45 | 169427 | 178546
16 | 39:40.47 | 2:14.28 | 178547 | 188624
17 | 41:55.00 | 3:12.23 | 188625 | 203047
18 | 45:07.23 | 1:32.15 | 203048 | 209962
19 | 46:39.38 | 1:13.30 | 209963 | 215467
20 | 47:52.68 | 2:06.15 | 215468 | 224932
21 | 49:59.08 | 2:32.06 | 224933 | 236338
22 | 52:31.14 | 1:24.41 | 236339 | 242679
23 | 53:55.55 | 1:37.16 | 242680 | 249970
24 | 55:32.71 | 1:17.50 | 249971 | 255795
25 | 56:50.46 | 1:47.62 | 255796 | 263882
26 | 58:38.33 | 2:07.02 | 263883 | 273409
27 | 60:45.35 | 2:23.48 | 273410 | 284182
28 | 63:09.08 | 0:55.36 | 284183 | 288343
29 | 64:04.44 | 1:48.02 | 288344 | 296445
30 | 65:52.46 | 1:18.22 | 296446 | 302317
31 | 67:10.68 | 1:43.69 | 302318 | 310111
32 | 68:54.62 | 3:10.12 | 310112 | 324373
33 | 72:04.74 | 1:49.05 | 324374 | 332553
Range status and errors
Selected range
Filename C:\Documents and Settings\Мария\Рабочий стол\TEMP\Schumann\CD 3\Juliane Banse - Graham Johnson - The Songs of Robert Schumann - 3.wav
Peak level 100.0 %
Extraction speed 4.5 X
Range quality 100.0 %
Copy CRC 6A5D86A2
Copy OK
No errors occurred
AccurateRip summary
Track 1 accurately ripped (confidence 5) [78548542] (AR v1)
Track 2 accurately ripped (confidence 5) [F404FDB8] (AR v1)
Track 3 accurately ripped (confidence 5) [2763A945] (AR v1)
Track 4 accurately ripped (confidence 5) [BC5136EF] (AR v1)
Track 5 accurately ripped (confidence 5) [81869904] (AR v1)
Track 6 accurately ripped (confidence 5) [4AFF9992] (AR v1)
Track 7 accurately ripped (confidence 5) [0E482857] (AR v1)
Track 8 accurately ripped (confidence 5) [E86F0E18] (AR v1)
Track 9 accurately ripped (confidence 5) [B50500CA] (AR v1)
Track 10 accurately ripped (confidence 5) [A9B4AB50] (AR v1)
Track 11 accurately ripped (confidence 5) [21F7356A] (AR v1)
Track 12 accurately ripped (confidence 5) [465AE42D] (AR v1)
Track 13 accurately ripped (confidence 5) [78E25336] (AR v1)
Track 14 accurately ripped (confidence 4) [58050575] (AR v1)
Track 15 accurately ripped (confidence 4) [4D378482] (AR v1)
Track 16 accurately ripped (confidence 4) [B2A1AB65] (AR v1)
Track 17 accurately ripped (confidence 4) [4B0BC2C3] (AR v1)
Track 18 accurately ripped (confidence 4) [04D97CB1] (AR v1)
Track 19 accurately ripped (confidence 4) [3AA525C6] (AR v1)
Track 20 accurately ripped (confidence 5) [A5448A45] (AR v1)
Track 21 accurately ripped (confidence 5) [DFF3C440] (AR v1)
Track 22 accurately ripped (confidence 5) [EE9B4C28] (AR v1)
Track 23 accurately ripped (confidence 4) [56D25918] (AR v1)
Track 24 accurately ripped (confidence 5) [1631DF1B] (AR v1)
Track 25 accurately ripped (confidence 5) [AFA1420E] (AR v1)
Track 26 accurately ripped (confidence 5) [A0922A8D] (AR v1)
Track 27 accurately ripped (confidence 6) [DDA6826B] (AR v1)
Track 28 accurately ripped (confidence 6) [938F1657] (AR v1)
Track 29 accurately ripped (confidence 6) [F617CB07] (AR v1)
Track 30 accurately ripped (confidence 6) [97E2C578] (AR v1)
Track 31 accurately ripped (confidence 6) [CB1B0CF0] (AR v1)
Track 32 accurately ripped (confidence 6) [2F8D6A84] (AR v1)
Track 33 accurately ripped (confidence 6) [00EA8D0A] (AR v1)
All tracks accurately ripped
End of status report
==== Log checksum D4AEB9BDFDACB3DA940FB63AD6C937B64C5DE1D639A47BB2F3923504E573FF4C ====
Exact Audio Copy V1.0 beta 3 from 29. August 2011
EAC extraction logfile from 24. July 2012, 18:01
Oliver Widmer, Stella Doufexis, Graham Johnson / Schumann Lieder 4
Used drive : HL-DT-STRW/DVD GCC-T10N Adapter: 1 ID: 0
Read mode : Secure
Utilize accurate stream : Yes
Defeat audio cache : Yes
Make use of C2 pointers : No
Read offset correction : 102
Overread into Lead-In and Lead-Out : No
Fill up missing offset samples with silence : Yes
Delete leading and trailing silent blocks : No
Null samples used in CRC calculations : Yes
Used interface : Native Win32 interface for Win NT & 2000
Used output format : User Defined Encoder
Selected bitrate : 128 kBit/s
Quality : High
Add ID3 tag : No
Command line compressor : C:\Program Files\Exact Audio Copy\Flac\flac.exe
Additional command line options : -8 -V -T "ARTIST=%artist%" -T "TITLE=%title%" -T "ALBUM=%albumtitle%" -T "DATE=%year%" -T "TRACKNUMBER=%tracknr%" -T "GENRE=%genre%" -T "PERFORMER=%albuminterpret%" -T "COMPOSER=%composer%" %haslyrics%--tag-from-file=LYRICS="%lyricsfile%"%haslyrics% -T "ALBUMARTIST=%albumartist%" -T "DISCNUMBER=%cdnumber%" -T "TOTALDISCS=%totalcds%" -T "TOTALTRACKS=%numtracks%" -T "COMMENT=%comment%" %source% -o %dest%
TOC of the extracted CD
Track | Start | Length | Start sector | End sector
---------------------------------------------------------
1 | 0:00.01 | 2:42.70 | 1 | 12220
2 | 2:42.71 | 1:04.01 | 12221 | 17021
3 | 3:46.72 | 2:21.44 | 17022 | 27640
4 | 6:08.41 | 1:41.69 | 27641 | 35284
5 | 7:50.35 | 2:26.39 | 35285 | 46273
6 | 10:16.74 | 2:45.49 | 46274 | 58697
7 | 13:02.48 | 3:01.02 | 58698 | 72274
8 | 16:03.50 | 3:10.39 | 72275 | 86563
9 | 19:14.14 | 3:22.69 | 86564 | 101782
10 | 22:37.08 | 2:26.66 | 101783 | 112798
11 | 25:03.74 | 5:36.60 | 112799 | 138058
12 | 30:40.59 | 2:15.67 | 138059 | 148250
13 | 32:56.51 | 2:29.24 | 148251 | 159449
14 | 35:26.00 | 1:03.09 | 159450 | 164183
15 | 36:29.09 | 2:13.03 | 164184 | 174161
16 | 38:42.12 | 2:07.35 | 174162 | 183721
17 | 40:49.47 | 2:35.27 | 183722 | 195373
18 | 43:24.74 | 0:56.45 | 195374 | 199618
19 | 44:21.44 | 3:21.00 | 199619 | 214693
20 | 47:42.44 | 4:54.67 | 214694 | 236810
21 | 52:37.36 | 3:38.71 | 236811 | 253231
22 | 56:16.32 | 2:38.39 | 253232 | 265120
23 | 58:54.71 | 1:57.54 | 265121 | 273949
24 | 60:52.50 | 2:43.18 | 273950 | 286192
25 | 63:35.68 | 2:34.54 | 286193 | 297796
26 | 66:10.47 | 2:26.30 | 297797 | 308776
27 | 68:37.02 | 1:12.48 | 308777 | 314224
28 | 69:49.50 | 2:25.51 | 314225 | 325150
29 | 72:15.26 | 1:05.66 | 325151 | 330091
30 | 73:21.17 | 1:09.15 | 330092 | 335281
31 | 74:30.32 | 2:27.37 | 335282 | 346343
Range status and errors
Selected range
Filename C:\Documents and Settings\Мария\Рабочий стол\TEMP\Schumann\CD 4\Oliver Widmer, Stella Doufexis, Graham Johnson - Schumann Lieder 4.wav
Suspicious position 0:47:46
Suspicious position 0:47:48 - 0:47:49
Suspicious position 0:47:52 - 0:47:53
Suspicious position 0:48:14 - 0:48:20
Suspicious position 0:48:22
Suspicious position 0:48:25
Suspicious position 0:48:28 - 0:48:30
Suspicious position 0:48:32 - 0:48:35
Suspicious position 0:48:37
Suspicious position 0:48:40 - 0:48:42
Suspicious position 0:48:44 - 0:48:45
Suspicious position 0:48:49
Suspicious position 0:48:54
Suspicious position 0:49:17 - 0:49:19
Suspicious position 0:49:26 - 0:49:28
Suspicious position 0:49:33 - 0:49:42
Suspicious position 0:49:48
Peak level 97.3 %
Extraction speed 0.5 X
Range quality 98.7 %
Copy CRC D4F75534
Copy finished
There were errors
AccurateRip summary
Track 1 accurately ripped (confidence 10) [2CEF91CF] (AR v1)
Track 2 accurately ripped (confidence 10) [F6DEA71D] (AR v1)
Track 3 accurately ripped (confidence 10) [AF954719] (AR v1)
Track 4 accurately ripped (confidence 10) [DA9AD596] (AR v1)
Track 5 accurately ripped (confidence 10) [E0162772] (AR v1)
Track 6 accurately ripped (confidence 10) [05CEA1A8] (AR v1)
Track 7 accurately ripped (confidence 10) [CF5A08B9] (AR v1)
Track 8 accurately ripped (confidence 10) [E21F4D2B] (AR v1)
Track 9 accurately ripped (confidence 10) [0BDAB5FE] (AR v1)
Track 10 accurately ripped (confidence 10) [30080E5D] (AR v1)
Track 11 accurately ripped (confidence 10) [626F7195] (AR v1)
Track 12 accurately ripped (confidence 10) [E86BDA4E] (AR v1)
Track 13 accurately ripped (confidence 10) [C9446BDA] (AR v1)
Track 14 accurately ripped (confidence 8) [BD50B5CA] (AR v1)
Track 15 accurately ripped (confidence 8) [C4B754DB] (AR v1)
Track 16 accurately ripped (confidence 8) [A34D49AB] (AR v1)
Track 17 accurately ripped (confidence 6) [3B77F357] (AR v1)
Track 18 accurately ripped (confidence 5) [69D2A8D5] (AR v1)
Track 19 cannot be verified as accurate (confidence 5) [EE5F2DD0], AccurateRip returned [EDC9E89F] (AR v2)
Track 20 cannot be verified as accurate (confidence 5) [E8047CF0], AccurateRip returned [E668FBBD] (AR v2)
Track 21 accurately ripped (confidence 6) [0A79F215] (AR v1)
Track 22 accurately ripped (confidence 7) [92601DAA] (AR v1)
Track 23 accurately ripped (confidence 9) [4282F8DA] (AR v1)
Track 24 accurately ripped (confidence 10) [FC459FD4] (AR v1)
Track 25 accurately ripped (confidence 10) [FA829BF8] (AR v1)
Track 26 accurately ripped (confidence 10) [F75741EF] (AR v1)
Track 27 accurately ripped (confidence 10) [A332D750] (AR v1)
Track 28 accurately ripped (confidence 10) [BE5C60C9] (AR v1)
Track 29 accurately ripped (confidence 10) [31A6DE68] (AR v1)
Track 30 accurately ripped (confidence 10) [E566D8D7] (AR v1)
Track 31 accurately ripped (confidence 9) [4FA4C0A2] (AR v1)
29 track(s) accurately ripped
2 track(s) could not be verified as accurate
Some tracks could not be verified as accurate
End of status report
==== Log checksum 33AA0374DA6C7D1F3B4A07F19B7ACE3071B570474177ECB288119B950F001F36 ====
Exact Audio Copy V1.0 beta 3 from 29. August 2011
EAC extraction logfile from 24. July 2012, 22:23
Christopher Maltman / The Songs of Robert Schumann - 5
Used drive : HL-DT-STRW/DVD GCC-T10N Adapter: 1 ID: 0
Read mode : Secure
Utilize accurate stream : Yes
Defeat audio cache : Yes
Make use of C2 pointers : No
Read offset correction : 102
Overread into Lead-In and Lead-Out : No
Fill up missing offset samples with silence : Yes
Delete leading and trailing silent blocks : No
Null samples used in CRC calculations : Yes
Used interface : Native Win32 interface for Win NT & 2000
Used output format : User Defined Encoder
Selected bitrate : 128 kBit/s
Quality : High
Add ID3 tag : No
Command line compressor : C:\Program Files\Exact Audio Copy\Flac\flac.exe
Additional command line options : -8 -V -T "ARTIST=%artist%" -T "TITLE=%title%" -T "ALBUM=%albumtitle%" -T "DATE=%year%" -T "TRACKNUMBER=%tracknr%" -T "GENRE=%genre%" -T "PERFORMER=%albuminterpret%" -T "COMPOSER=%composer%" %haslyrics%--tag-from-file=LYRICS="%lyricsfile%"%haslyrics% -T "ALBUMARTIST=%albumartist%" -T "DISCNUMBER=%cdnumber%" -T "TOTALDISCS=%totalcds%" -T "TOTALTRACKS=%numtracks%" -T "COMMENT=%comment%" %source% -o %dest%
TOC of the extracted CD
Track | Start | Length | Start sector | End sector
---------------------------------------------------------
1 | 0:00.00 | 5:04.27 | 0 | 22826
2 | 5:04.27 | 1:34.42 | 22827 | 29918
3 | 6:38.69 | 3:04.53 | 29919 | 43771
4 | 9:43.47 | 1:52.22 | 43772 | 52193
5 | 11:35.69 | 2:05.21 | 52194 | 61589
6 | 13:41.15 | 1:09.15 | 61590 | 66779
7 | 14:50.30 | 2:11.00 | 66780 | 76604
8 | 17:01.30 | 2:03.66 | 76605 | 85895
9 | 19:05.21 | 3:09.54 | 85896 | 100124
10 | 22:15.00 | 2:21.42 | 100125 | 110741
11 | 24:36.42 | 2:29.36 | 110742 | 121952
12 | 27:06.03 | 2:47.57 | 121953 | 134534
13 | 29:53.60 | 2:48.12 | 134535 | 147146
14 | 32:41.72 | 3:51.27 | 147147 | 164498
15 | 36:33.24 | 1:36.00 | 164499 | 171698
16 | 38:09.24 | 2:16.36 | 171699 | 181934
17 | 40:25.60 | 2:01.15 | 181935 | 191024
18 | 42:27.00 | 1:41.24 | 191025 | 198623
19 | 44:08.24 | 1:20.15 | 198624 | 204638
20 | 45:28.39 | 2:23.42 | 204639 | 215405
21 | 47:52.06 | 1:42.36 | 215406 | 223091
22 | 49:34.42 | 0:53.30 | 223092 | 227096
23 | 50:27.72 | 0:42.20 | 227097 | 230266
24 | 51:10.17 | 1:35.58 | 230267 | 237449
25 | 52:46.00 | 0:59.53 | 237450 | 241927
26 | 53:45.53 | 2:29.43 | 241928 | 253145
27 | 56:15.21 | 1:39.57 | 253146 | 260627
28 | 57:55.03 | 1:26.51 | 260628 | 267128
29 | 59:21.54 | 1:36.24 | 267129 | 274352
30 | 60:58.03 | 1:47.33 | 274353 | 282410
31 | 62:45.36 | 1:08.00 | 282411 | 287510
32 | 63:53.36 | 2:28.66 | 287511 | 298676
33 | 66:22.27 | 2:02.60 | 298677 | 307886
34 | 68:25.12 | 1:36.69 | 307887 | 315155
35 | 70:02.06 | 2:49.29 | 315156 | 327859
36 | 72:51.35 | 4:31.10 | 327860 | 348194
Range status and errors
Selected range
Filename C:\Documents and Settings\Мария\Рабочий стол\TEMP\Schumann\CD 5\Christopher Maltman - The Songs of Robert Schumann - 5.wav
Peak level 86.2 %
Extraction speed 3.6 X
Range quality 100.0 %
Copy CRC 4FFC149F
Copy OK
No errors occurred
AccurateRip summary
Track 1 accurately ripped (confidence 8) [E1D835A1] (AR v1)
Track 2 accurately ripped (confidence 8) [3336FF5F] (AR v1)
Track 3 accurately ripped (confidence 8) [C36FAEFF] (AR v1)
Track 4 accurately ripped (confidence 8) [2B759E85] (AR v1)
Track 5 accurately ripped (confidence 8) [5B4A35EA] (AR v1)
Track 6 accurately ripped (confidence 8) [4F9C26A9] (AR v1)
Track 7 accurately ripped (confidence 8) [1A8BB741] (AR v1)
Track 8 accurately ripped (confidence 8) [25C4C32A] (AR v1)
Track 9 accurately ripped (confidence 8) [0C26CA7C] (AR v1)
Track 10 accurately ripped (confidence 7) [1203881E] (AR v1)
Track 11 accurately ripped (confidence 7) [B87F865E] (AR v1)
Track 12 accurately ripped (confidence 7) [1BC455BC] (AR v1)
Track 13 accurately ripped (confidence 7) [2D1F705B] (AR v1)
Track 14 accurately ripped (confidence 8) [E054ABB8] (AR v1)
Track 15 accurately ripped (confidence 8) [B5E40810] (AR v1)
Track 16 accurately ripped (confidence 8) [FEE4CF5F] (AR v1)
Track 17 accurately ripped (confidence 8) [D115F707] (AR v1)
Track 18 accurately ripped (confidence 8) [2165CD00] (AR v1)
Track 19 accurately ripped (confidence 8) [626BA047] (AR v1)
Track 20 accurately ripped (confidence 8) [3A318B55] (AR v1)
Track 21 accurately ripped (confidence 8) [3556A2F4] (AR v1)
Track 22 accurately ripped (confidence 8) [BE2D5A41] (AR v1)
Track 23 accurately ripped (confidence 8) [63287537] (AR v1)
Track 24 accurately ripped (confidence 8) [5E988AE6] (AR v1)
Track 25 accurately ripped (confidence 8) [5F2BB388] (AR v1)
Track 26 accurately ripped (confidence 8) [A5EF8DB7] (AR v1)
Track 27 accurately ripped (confidence 8) [76B34915] (AR v1)
Track 28 accurately ripped (confidence 8) [9857175C] (AR v1)
Track 29 accurately ripped (confidence 8) [35F9B108] (AR v1)
Track 30 accurately ripped (confidence 8) [4FCE1222] (AR v1)
Track 31 accurately ripped (confidence 8) [F0F1E972] (AR v1)
Track 32 accurately ripped (confidence 8) [320DCEC5] (AR v1)
Track 33 accurately ripped (confidence 8) [45DCFC93] (AR v1)
Track 34 accurately ripped (confidence 8) [464F346B] (AR v1)
Track 35 accurately ripped (confidence 8) [CB5DA27D] (AR v1)
Track 36 accurately ripped (confidence 8) [5F60D8DD] (AR v1)
All tracks accurately ripped
End of status report
==== Log checksum CDC6D45EEC1513B4F914EF15F46C00D9591638D2DD29C63554475216B7A295D2 ====
Exact Audio Copy V1.0 beta 3 from 29. August 2011
EAC extraction logfile from 25. July 2012, 1:28
Robert Schumann / The Songs of Robert Schumann - 6
Used drive : HL-DT-STRW/DVD GCC-T10N Adapter: 1 ID: 0
Read mode : Secure
Utilize accurate stream : Yes
Defeat audio cache : Yes
Make use of C2 pointers : No
Read offset correction : 102
Overread into Lead-In and Lead-Out : No
Fill up missing offset samples with silence : Yes
Delete leading and trailing silent blocks : No
Null samples used in CRC calculations : Yes
Used interface : Native Win32 interface for Win NT & 2000
Used output format : User Defined Encoder
Selected bitrate : 128 kBit/s
Quality : High
Add ID3 tag : No
Command line compressor : C:\Program Files\Exact Audio Copy\Flac\flac.exe
Additional command line options : -8 -V -T "ARTIST=%artist%" -T "TITLE=%title%" -T "ALBUM=%albumtitle%" -T "DATE=%year%" -T "TRACKNUMBER=%tracknr%" -T "GENRE=%genre%" -T "PERFORMER=%albuminterpret%" -T "COMPOSER=%composer%" %haslyrics%--tag-from-file=LYRICS="%lyricsfile%"%haslyrics% -T "ALBUMARTIST=%albumartist%" -T "DISCNUMBER=%cdnumber%" -T "TOTALDISCS=%totalcds%" -T "TOTALTRACKS=%numtracks%" -T "COMMENT=%comment%" %source% -o %dest%
TOC of the extracted CD
Track | Start | Length | Start sector | End sector
---------------------------------------------------------
1 | 0:00.00 | 2:10.16 | 0 | 9765
2 | 2:10.16 | 1:32.30 | 9766 | 16695
3 | 3:42.46 | 2:47.12 | 16696 | 29232
4 | 6:29.58 | 5:19.06 | 29233 | 53163
5 | 11:48.64 | 2:48.36 | 53164 | 65799
6 | 14:37.25 | 2:17.33 | 65800 | 76107
7 | 16:54.58 | 2:18.24 | 76108 | 86481
8 | 19:13.07 | 4:15.51 | 86482 | 105657
9 | 23:28.58 | 3:08.02 | 105658 | 119759
10 | 26:36.60 | 1:52.64 | 119760 | 128223
11 | 28:29.49 | 1:27.69 | 128224 | 134817
12 | 29:57.43 | 2:50.03 | 134818 | 147570
13 | 32:47.46 | 2:56.24 | 147571 | 160794
14 | 35:43.70 | 2:37.69 | 160795 | 172638
15 | 38:21.64 | 1:03.57 | 172639 | 177420
16 | 39:25.46 | 2:02.00 | 177421 | 186570
17 | 41:27.46 | 3:23.21 | 186571 | 201816
18 | 44:50.67 | 4:04.74 | 201817 | 220190
19 | 48:55.66 | 2:35.21 | 220191 | 231836
20 | 51:31.12 | 1:16.41 | 231837 | 237577
21 | 52:47.53 | 1:58.52 | 237578 | 246479
22 | 54:46.30 | 1:37.38 | 246480 | 253792
23 | 56:23.68 | 1:56.27 | 253793 | 262519
24 | 58:20.20 | 2:04.27 | 262520 | 271846
25 | 60:24.47 | 2:39.34 | 271847 | 283805
26 | 63:04.06 | 3:15.66 | 283806 | 298496
27 | 66:19.72 | 1:28.68 | 298497 | 305164
28 | 67:48.65 | 1:21.39 | 305165 | 311278
29 | 69:10.29 | 2:11.36 | 311279 | 321139
30 | 71:21.65 | 2:05.46 | 321140 | 330560
31 | 73:27.36 | 1:59.62 | 330561 | 339547
Range status and errors
Selected range
Filename C:\Documents and Settings\Мария\Рабочий стол\TEMP\Schumann\CD 6\Robert Schumann - The Songs of Robert Schumann - 6.wav
Peak level 100.0 %
Extraction speed 4.5 X
Range quality 100.0 %
Copy CRC 5F1DCE7D
Copy OK
No errors occurred
AccurateRip summary
Track 1 accurately ripped (confidence 2) [925BCFF8] (AR v2)
Track 2 accurately ripped (confidence 2) [868C45B8] (AR v2)
Track 3 accurately ripped (confidence 2) [09E9C3EB] (AR v2)
Track 4 accurately ripped (confidence 2) [3692470A] (AR v2)
Track 5 accurately ripped (confidence 2) [249759D0] (AR v2)
Track 6 accurately ripped (confidence 2) [B3B69BCB] (AR v2)
Track 7 accurately ripped (confidence 2) [42566742] (AR v2)
Track 8 accurately ripped (confidence 2) [B5C68A03] (AR v2)
Track 9 accurately ripped (confidence 2) [C67A590B] (AR v2)
Track 10 accurately ripped (confidence 2) [030EFEF2] (AR v2)
Track 11 accurately ripped (confidence 2) [C02B6DE8] (AR v2)
Track 12 accurately ripped (confidence 2) [240AF3AD] (AR v2)
Track 13 accurately ripped (confidence 2) [11D74B2A] (AR v2)
Track 14 accurately ripped (confidence 2) [B37224C0] (AR v2)
Track 15 accurately ripped (confidence 2) [11679614] (AR v2)
Track 16 accurately ripped (confidence 2) [3BFD34F4] (AR v2)
Track 17 accurately ripped (confidence 2) [F7C21C1E] (AR v2)
Track 18 accurately ripped (confidence 2) [6257236D] (AR v2)
Track 19 accurately ripped (confidence 2) [7423F405] (AR v2)
Track 20 accurately ripped (confidence 2) [AE907474] (AR v2)
Track 21 accurately ripped (confidence 2) [1E4DAA7E] (AR v2)
Track 22 accurately ripped (confidence 2) [B4F9C2A6] (AR v2)
Track 23 accurately ripped (confidence 2) [014F8DDE] (AR v2)
Track 24 accurately ripped (confidence 2) [96027423] (AR v2)
Track 25 accurately ripped (confidence 2) [F320D6AC] (AR v2)
Track 26 accurately ripped (confidence 2) [85320D82] (AR v2)
Track 27 accurately ripped (confidence 2) [CD1C933A] (AR v2)
Track 28 accurately ripped (confidence 2) [A191A7D1] (AR v2)
Track 29 accurately ripped (confidence 2) [0F36CBBA] (AR v2)
Track 30 accurately ripped (confidence 2) [03A1ACF8] (AR v2)
Track 31 accurately ripped (confidence 2) [F353A678] (AR v2)
All tracks accurately ripped
End of status report
==== Log checksum 98B1730E8914C8FBEF1A725DB71B7CFD3EDC5FBC3C59C77AA369FEC9B96FD2FC ====
Exact Audio Copy V1.0 beta 3 from 29. August 2011
EAC extraction logfile from 25. July 2012, 2:17
Ian Bostridge, Dorothea Röschmann, Graham Johnson / Robert Schumann - Lieder 7
Used drive : HL-DT-STRW/DVD GCC-T10N Adapter: 1 ID: 0
Read mode : Secure
Utilize accurate stream : Yes
Defeat audio cache : Yes
Make use of C2 pointers : No
Read offset correction : 102
Overread into Lead-In and Lead-Out : No
Fill up missing offset samples with silence : Yes
Delete leading and trailing silent blocks : No
Null samples used in CRC calculations : Yes
Used interface : Native Win32 interface for Win NT & 2000
Used output format : User Defined Encoder
Selected bitrate : 128 kBit/s
Quality : High
Add ID3 tag : No
Command line compressor : C:\Program Files\Exact Audio Copy\Flac\flac.exe
Additional command line options : -8 -V -T "ARTIST=%artist%" -T "TITLE=%title%" -T "ALBUM=%albumtitle%" -T "DATE=%year%" -T "TRACKNUMBER=%tracknr%" -T "GENRE=%genre%" -T "PERFORMER=%albuminterpret%" -T "COMPOSER=%composer%" %haslyrics%--tag-from-file=LYRICS="%lyricsfile%"%haslyrics% -T "ALBUMARTIST=%albumartist%" -T "DISCNUMBER=%cdnumber%" -T "TOTALDISCS=%totalcds%" -T "TOTALTRACKS=%numtracks%" -T "COMMENT=%comment%" %source% -o %dest%
TOC of the extracted CD
Track | Start | Length | Start sector | End sector
---------------------------------------------------------
1 | 0:00.00 | 3:57.33 | 0 | 17807
2 | 3:57.33 | 2:20.27 | 17808 | 28334
3 | 6:17.60 | 1:35.36 | 28335 | 35495
4 | 7:53.21 | 4:18.63 | 35496 | 54908
5 | 12:12.09 | 2:23.19 | 54909 | 65652
6 | 14:35.28 | 1:14.30 | 65653 | 71232
7 | 15:49.58 | 3:27.43 | 71233 | 86800
8 | 19:17.26 | 1:34.23 | 86801 | 93873
9 | 20:51.49 | 0:37.19 | 93874 | 96667
10 | 21:28.68 | 1:02.31 | 96668 | 101348
11 | 22:31.24 | 1:42.10 | 101349 | 109008
12 | 24:13.34 | 2:24.42 | 109009 | 119850
13 | 26:38.01 | 2:58.17 | 119851 | 133217
14 | 29:36.18 | 1:35.33 | 133218 | 140375
15 | 31:11.51 | 2:32.01 | 140376 | 151776
16 | 33:43.52 | 1:47.43 | 151777 | 159844
17 | 35:31.20 | 1:32.59 | 159845 | 166803
18 | 37:04.04 | 2:49.23 | 166804 | 179501
19 | 39:53.27 | 4:40.46 | 179502 | 200547
20 | 44:33.73 | 1:47.10 | 200548 | 208582
21 | 46:21.08 | 1:48.46 | 208583 | 216728
22 | 48:09.54 | 1:04.38 | 216729 | 221566
23 | 49:14.17 | 1:02.29 | 221567 | 226245
24 | 50:16.46 | 3:03.02 | 226246 | 239972
25 | 53:19.48 | 2:36.57 | 239973 | 251729
26 | 55:56.30 | 1:01.32 | 251730 | 256336
27 | 56:57.62 | 1:17.19 | 256337 | 262130
28 | 58:15.06 | 1:47.07 | 262131 | 270162
29 | 60:02.13 | 2:01.73 | 270163 | 279310
30 | 62:04.11 | 2:17.48 | 279311 | 289633
31 | 64:21.59 | 2:28.11 | 289634 | 300744
32 | 66:49.70 | 2:35.03 | 300745 | 312372
33 | 69:24.73 | 2:58.53 | 312373 | 325775
34 | 72:23.51 | 2:38.62 | 325776 | 337687
35 | 75:02.38 | 2:28.45 | 337688 | 348832
Range status and errors
Selected range
Filename C:\Documents and Settings\Мария\Рабочий стол\TEMP\Schumann\CD 7\Ian Bostridge, Dorothea Röschmann, Graham Johnson - Robert Schumann - Lieder 7.wav
Peak level 100.0 %
Extraction speed 4.4 X
Range quality 100.0 %
Copy CRC CDDE1BD6
Copy OK
No errors occurred
AccurateRip summary
Track 1 accurately ripped (confidence 3) [DD121B25] (AR v2)
Track 2 accurately ripped (confidence 3) [9672E23E] (AR v2)
Track 3 accurately ripped (confidence 3) [D2EEEAB1] (AR v2)
Track 4 accurately ripped (confidence 3) [510C72F5] (AR v2)
Track 5 accurately ripped (confidence 3) [3E89D7F6] (AR v2)
Track 6 accurately ripped (confidence 3) [95357433] (AR v2)
Track 7 accurately ripped (confidence 3) [DA83371E] (AR v2)
Track 8 accurately ripped (confidence 3) [FE1841EB] (AR v2)
Track 9 accurately ripped (confidence 3) [4E25E512] (AR v2)
Track 10 accurately ripped (confidence 3) [8D2D49E1] (AR v2)
Track 11 accurately ripped (confidence 3) [1DDEA9E1] (AR v2)
Track 12 accurately ripped (confidence 3) [520796A8] (AR v2)
Track 13 accurately ripped (confidence 3) [23F0D593] (AR v2)
Track 14 accurately ripped (confidence 3) [5FCCF17F] (AR v2)
Track 15 accurately ripped (confidence 3) [C8A06BDA] (AR v2)
Track 16 accurately ripped (confidence 3) [B7A0CA8C] (AR v2)
Track 17 accurately ripped (confidence 3) [3CC44CF2] (AR v2)
Track 18 accurately ripped (confidence 3) [307716EB] (AR v2)
Track 19 accurately ripped (confidence 3) [79704DA4] (AR v2)
Track 20 accurately ripped (confidence 3) [649CF1EB] (AR v2)
Track 21 accurately ripped (confidence 3) [D3FE805E] (AR v2)
Track 22 accurately ripped (confidence 3) [6B2B5269] (AR v2)
Track 23 accurately ripped (confidence 3) [61690A91] (AR v2)
Track 24 accurately ripped (confidence 3) [B65F37E5] (AR v2)
Track 25 accurately ripped (confidence 3) [5097284D] (AR v2)
Track 26 accurately ripped (confidence 3) [0AE19219] (AR v2)
Track 27 accurately ripped (confidence 3) [DCD7C245] (AR v2)
Track 28 accurately ripped (confidence 3) [0011BC0A] (AR v2)
Track 29 accurately ripped (confidence 3) [8E7A92F7] (AR v2)
Track 30 accurately ripped (confidence 3) [86B23999] (AR v2)
Track 31 accurately ripped (confidence 3) [0090CBEA] (AR v2)
Track 32 accurately ripped (confidence 3) [DF425011] (AR v2)
Track 33 accurately ripped (confidence 3) [B8AA9F5F] (AR v2)
Track 34 accurately ripped (confidence 3) [B9BFA826] (AR v2)
Track 35 accurately ripped (confidence 3) [94577299] (AR v2)
All tracks accurately ripped
End of status report
==== Log checksum F75204323191DBE73BAB7ACB9AFBAB0EF7974D988C258C3CEB74A6F7C3E31199 ====
Exact Audio Copy V1.0 beta 3 from 29. August 2011
EAC extraction logfile from 25. July 2012, 15:01
Robert Schumann / The Songs of Robert Schumann - 8, Graham Johnson, MarkPadmore, Christophger Maltman, Jonathan Lemalu
Used drive : HL-DT-STRW/DVD GCC-T10N Adapter: 1 ID: 0
Read mode : Secure
Utilize accurate stream : Yes
Defeat audio cache : Yes
Make use of C2 pointers : No
Read offset correction : 102
Overread into Lead-In and Lead-Out : No
Fill up missing offset samples with silence : Yes
Delete leading and trailing silent blocks : No
Null samples used in CRC calculations : Yes
Used interface : Native Win32 interface for Win NT & 2000
Used output format : User Defined Encoder
Selected bitrate : 128 kBit/s
Quality : High
Add ID3 tag : No
Command line compressor : C:\Program Files\Exact Audio Copy\Flac\flac.exe
Additional command line options : -8 -V -T "ARTIST=%artist%" -T "TITLE=%title%" -T "ALBUM=%albumtitle%" -T "DATE=%year%" -T "TRACKNUMBER=%tracknr%" -T "GENRE=%genre%" -T "PERFORMER=%albuminterpret%" -T "COMPOSER=%composer%" %haslyrics%--tag-from-file=LYRICS="%lyricsfile%"%haslyrics% -T "ALBUMARTIST=%albumartist%" -T "DISCNUMBER=%cdnumber%" -T "TOTALDISCS=%totalcds%" -T "TOTALTRACKS=%numtracks%" -T "COMMENT=%comment%" %source% -o %dest%
TOC of the extracted CD
Track | Start | Length | Start sector | End sector
---------------------------------------------------------
1 | 0:00.74 | 2:42.26 | 74 | 12249
2 | 2:43.25 | 1:46.70 | 12250 | 20269
3 | 4:30.20 | 3:28.32 | 20270 | 35901
4 | 7:58.52 | 1:26.10 | 35902 | 42361
5 | 9:24.62 | 2:22.02 | 42362 | 53013
6 | 11:46.64 | 4:05.22 | 53014 | 71410
7 | 15:52.11 | 2:49.67 | 71411 | 84152
8 | 18:42.03 | 2:43.31 | 84153 | 96408
9 | 21:25.34 | 1:48.70 | 96409 | 104578
10 | 23:14.29 | 2:18.71 | 104579 | 114999
11 | 25:33.25 | 1:28.52 | 115000 | 121651
12 | 27:02.02 | 2:10.21 | 121652 | 131422
13 | 29:12.23 | 1:27.57 | 131423 | 138004
14 | 30:40.05 | 1:12.68 | 138005 | 143472
15 | 31:52.73 | 1:18.49 | 143473 | 149371
16 | 33:11.47 | 3:43.30 | 149372 | 166126
17 | 36:55.02 | 0:51.38 | 166127 | 169989
18 | 37:46.40 | 3:45.57 | 169990 | 186921
19 | 41:32.22 | 2:04.30 | 186922 | 196251
20 | 43:36.52 | 3:47.58 | 196252 | 213334
21 | 47:24.35 | 0:51.61 | 213335 | 217220
22 | 48:16.21 | 3:58.05 | 217221 | 235075
23 | 52:14.26 | 1:34.08 | 235076 | 242133
24 | 53:48.34 | 2:02.69 | 242134 | 251352
25 | 55:51.28 | 6:21.56 | 251353 | 279983
26 | 62:13.09 | 1:51.34 | 279984 | 288342
27 | 64:04.43 | 2:45.10 | 288343 | 300727
28 | 66:49.53 | 0:42.43 | 300728 | 303920
29 | 67:32.21 | 2:45.39 | 303921 | 316334
30 | 70:17.60 | 3:14.09 | 316335 | 330893
31 | 73:31.69 | 3:39.50 | 330894 | 347368
Range status and errors
Selected range
Filename C:\Documents and Settings\Мария\Рабочий стол\TEMP\Schumann\CD 8\Robert Schumann - The Songs of Robert Schumann - 8, Graham Johnson, MarkPadmore, Christophger Maltman, Jonathan Lemalu.wav
Peak level 100.0 %
Extraction speed 4.3 X
Range quality 100.0 %
Copy CRC E57900D4
Copy OK
No errors occurred
AccurateRip summary
Track 1 accurately ripped (confidence 8) [1E3A76C7] (AR v1)
Track 2 accurately ripped (confidence 8) [F7A5B2F2] (AR v1)
Track 3 accurately ripped (confidence 8) [4627F93A] (AR v1)
Track 4 accurately ripped (confidence 8) [AACCC50D] (AR v1)
Track 5 accurately ripped (confidence 8) [526D829C] (AR v1)
Track 6 accurately ripped (confidence 8) [AC44C7FC] (AR v1)
Track 7 accurately ripped (confidence 8) [8AE10BF3] (AR v1)
Track 8 accurately ripped (confidence 8) [DC369FA9] (AR v1)
Track 9 accurately ripped (confidence 8) [237C688E] (AR v1)
Track 10 accurately ripped (confidence 8) [E60EA6FD] (AR v1)
Track 11 accurately ripped (confidence 8) [2CA2EA33] (AR v1)
Track 12 accurately ripped (confidence 8) [A5F70766] (AR v1)
Track 13 accurately ripped (confidence 8) [26EB6B93] (AR v1)
Track 14 accurately ripped (confidence 8) [70D947A8] (AR v1)
Track 15 accurately ripped (confidence 8) [4DDCF80C] (AR v1)
Track 16 accurately ripped (confidence 8) [A0DCD9AF] (AR v1)
Track 17 accurately ripped (confidence 8) [E57E61E6] (AR v1)
Track 18 accurately ripped (confidence 7) [FADD3164] (AR v1)
Track 19 accurately ripped (confidence 7) [6C29FE3B] (AR v1)
Track 20 accurately ripped (confidence 8) [ADCE4A2C] (AR v1)
Track 21 accurately ripped (confidence 8) [62FBF80B] (AR v1)
Track 22 accurately ripped (confidence 7) [096D99EA] (AR v1)
Track 23 accurately ripped (confidence 7) [CAEB7A05] (AR v1)
Track 24 accurately ripped (confidence 8) [BF33D114] (AR v1)
Track 25 accurately ripped (confidence 7) [9A553C85] (AR v1)
Track 26 accurately ripped (confidence 8) [FFBF7647] (AR v1)
Track 27 accurately ripped (confidence 8) [8DA05406] (AR v1)
Track 28 accurately ripped (confidence 8) [92B8D258] (AR v1)
Track 29 accurately ripped (confidence 7) [C97837B1] (AR v1)
Track 30 accurately ripped (confidence 7) [7C9A0A3B] (AR v1)
Track 31 accurately ripped (confidence 7) [4241C69D] (AR v1)
All tracks accurately ripped
End of status report
==== Log checksum F817B23D6B3BF2ED450E472115962A467ED332EDAB69B65A400BA55CA249B4AD ====
Exact Audio Copy V1.0 beta 3 from 29. August 2011
EAC extraction logfile from 25. July 2012, 16:58
Graham Johnson / Schumann Album für die Jugend Op.68
Used drive : HL-DT-STRW/DVD GCC-T10N Adapter: 1 ID: 0
Read mode : Secure
Utilize accurate stream : Yes
Defeat audio cache : Yes
Make use of C2 pointers : No
Read offset correction : 102
Overread into Lead-In and Lead-Out : No
Fill up missing offset samples with silence : Yes
Delete leading and trailing silent blocks : No
Null samples used in CRC calculations : Yes
Used interface : Native Win32 interface for Win NT & 2000
Used output format : User Defined Encoder
Selected bitrate : 128 kBit/s
Quality : High
Add ID3 tag : No
Command line compressor : C:\Program Files\Exact Audio Copy\Flac\flac.exe
Additional command line options : -8 -V -T "ARTIST=%artist%" -T "TITLE=%title%" -T "ALBUM=%albumtitle%" -T "DATE=%year%" -T "TRACKNUMBER=%tracknr%" -T "GENRE=%genre%" -T "PERFORMER=%albuminterpret%" -T "COMPOSER=%composer%" %haslyrics%--tag-from-file=LYRICS="%lyricsfile%"%haslyrics% -T "ALBUMARTIST=%albumartist%" -T "DISCNUMBER=%cdnumber%" -T "TOTALDISCS=%totalcds%" -T "TOTALTRACKS=%numtracks%" -T "COMMENT=%comment%" %source% -o %dest%
TOC of the extracted CD
Track | Start | Length | Start sector | End sector
---------------------------------------------------------
1 | 0:00.00 | 0:46.69 | 0 | 3518
2 | 0:46.69 | 1:09.02 | 3519 | 8695
3 | 1:55.71 | 1:26.44 | 8696 | 15189
4 | 3:22.40 | 0:52.35 | 15190 | 19124
5 | 4:15.00 | 0:51.16 | 19125 | 22965
6 | 5:06.16 | 0:59.17 | 22966 | 27407
7 | 6:05.33 | 1:52.56 | 27408 | 35863
8 | 7:58.14 | 2:22.60 | 35864 | 46573
9 | 10:20.74 | 2:06.48 | 46574 | 56071
10 | 12:27.47 | 1:51.35 | 56072 | 64431
11 | 14:19.07 | 1:27.23 | 64432 | 70979
12 | 15:46.30 | 1:00.66 | 70980 | 75545
13 | 16:47.21 | 1:26.30 | 75546 | 82025
14 | 18:13.51 | 2:33.20 | 82026 | 93520
15 | 20:46.71 | 1:49.21 | 93521 | 101716
16 | 22:36.17 | 1:22.11 | 101717 | 107877
17 | 23:58.28 | 1:32.42 | 107878 | 114819
18 | 25:30.70 | 2:17.29 | 114820 | 125123
19 | 27:48.24 | 1:24.13 | 125124 | 131436
20 | 29:12.37 | 1:27.49 | 131437 | 138010
21 | 30:40.11 | 2:50.43 | 138011 | 150803
22 | 33:30.54 | 2:15.54 | 150804 | 160982
23 | 35:46.33 | 1:44.38 | 160983 | 168820
24 | 37:30.71 | 1:33.59 | 168821 | 175854
25 | 39:04.55 | 2:00.48 | 175855 | 184902
26 | 41:05.28 | 0:58.65 | 184903 | 189317
27 | 42:04.18 | 2:10.26 | 189318 | 199093
28 | 44:14.44 | 1:21.12 | 199094 | 205180
29 | 45:35.56 | 2:14.17 | 205181 | 215247
30 | 47:49.73 | 1:27.70 | 215248 | 221842
31 | 49:17.68 | 2:56.34 | 221843 | 235076
32 | 52:14.27 | 1:14.16 | 235077 | 240642
33 | 53:28.43 | 1:09.12 | 240643 | 245829
34 | 54:37.55 | 1:36.08 | 245830 | 253037
35 | 56:13.63 | 2:20.55 | 253038 | 263592
36 | 58:34.43 | 1:22.68 | 263593 | 269810
37 | 59:57.36 | 1:48.55 | 269811 | 277965
38 | 61:46.16 | 0:47.33 | 277966 | 281523
39 | 62:33.49 | 1:20.64 | 281524 | 287587
40 | 63:54.38 | 1:27.06 | 287588 | 294118
41 | 65:21.44 | 1:33.68 | 294119 | 301161
42 | 66:55.37 | 4:17.53 | 301162 | 320489
43 | 71:13.15 | 1:37.23 | 320490 | 327787
44 | 72:50.38 | 4:06.45 | 327788 | 346282
45 | 76:57.08 | 1:06.39 | 346283 | 351271
46 | 78:03.47 | 0:50.12 | 351272 | 355033
Range status and errors
Selected range
Filename C:\Documents and Settings\Мария\Рабочий стол\TEMP\Schumann\CD 9\Graham Johnson - Schumann Album für die Jugend Op.68.wav
Peak level 100.0 %
Extraction speed 4.5 X
Range quality 100.0 %
Copy CRC 8E774006
Copy OK
No errors occurred
AccurateRip summary
Track 1 not present in database
Track 2 not present in database
Track 3 not present in database
Track 4 not present in database
Track 5 not present in database
Track 6 not present in database
Track 7 not present in database
Track 8 not present in database
Track 9 not present in database
Track 10 not present in database
Track 11 not present in database
Track 12 not present in database
Track 13 not present in database
Track 14 not present in database
Track 15 not present in database
Track 16 not present in database
Track 17 not present in database
Track 18 not present in database
Track 19 not present in database
Track 20 not present in database
Track 21 not present in database
Track 22 not present in database
Track 23 not present in database
Track 24 not present in database
Track 25 not present in database
Track 26 not present in database
Track 27 not present in database
Track 28 not present in database
Track 29 not present in database
Track 30 not present in database
Track 31 not present in database
Track 32 not present in database
Track 33 not present in database
Track 34 not present in database
Track 35 not present in database
Track 36 not present in database
Track 37 not present in database
Track 38 not present in database
Track 39 not present in database
Track 40 not present in database
Track 41 not present in database
Track 42 not present in database
Track 43 not present in database
Track 44 not present in database
Track 45 not present in database
Track 46 not present in database
None of the tracks are present in the AccurateRip database
End of status report
==== Log checksum CB83A2655A7E48BD4F64EDDA06850ABE7703CEE076163636DC4AC5C24643AA3E ====
Exact Audio Copy V1.0 beta 3 from 29. August 2011
EAC extraction logfile from 25. July 2012, 16:58
Graham Johnson / Schumann Album für die Jugend Op.68
Used drive : HL-DT-STRW/DVD GCC-T10N Adapter: 1 ID: 0
Read mode : Secure
Utilize accurate stream : Yes
Defeat audio cache : Yes
Make use of C2 pointers : No
Read offset correction : 102
Overread into Lead-In and Lead-Out : No
Fill up missing offset samples with silence : Yes
Delete leading and trailing silent blocks : No
Null samples used in CRC calculations : Yes
Used interface : Native Win32 interface for Win NT & 2000
Used output format : User Defined Encoder
Selected bitrate : 128 kBit/s
Quality : High
Add ID3 tag : No
Command line compressor : C:\Program Files\Exact Audio Copy\Flac\flac.exe
Additional command line options : -8 -V -T "ARTIST=%artist%" -T "TITLE=%title%" -T "ALBUM=%albumtitle%" -T "DATE=%year%" -T "TRACKNUMBER=%tracknr%" -T "GENRE=%genre%" -T "PERFORMER=%albuminterpret%" -T "COMPOSER=%composer%" %haslyrics%--tag-from-file=LYRICS="%lyricsfile%"%haslyrics% -T "ALBUMARTIST=%albumartist%" -T "DISCNUMBER=%cdnumber%" -T "TOTALDISCS=%totalcds%" -T "TOTALTRACKS=%numtracks%" -T "COMMENT=%comment%" %source% -o %dest%
TOC of the extracted CD
Track | Start | Length | Start sector | End sector
---------------------------------------------------------
1 | 0:00.00 | 0:46.69 | 0 | 3518
2 | 0:46.69 | 1:09.02 | 3519 | 8695
3 | 1:55.71 | 1:26.44 | 8696 | 15189
4 | 3:22.40 | 0:52.35 | 15190 | 19124
5 | 4:15.00 | 0:51.16 | 19125 | 22965
6 | 5:06.16 | 0:59.17 | 22966 | 27407
7 | 6:05.33 | 1:52.56 | 27408 | 35863
8 | 7:58.14 | 2:22.60 | 35864 | 46573
9 | 10:20.74 | 2:06.48 | 46574 | 56071
10 | 12:27.47 | 1:51.35 | 56072 | 64431
11 | 14:19.07 | 1:27.23 | 64432 | 70979
12 | 15:46.30 | 1:00.66 | 70980 | 75545
13 | 16:47.21 | 1:26.30 | 75546 | 82025
14 | 18:13.51 | 2:33.20 | 82026 | 93520
15 | 20:46.71 | 1:49.21 | 93521 | 101716
16 | 22:36.17 | 1:22.11 | 101717 | 107877
17 | 23:58.28 | 1:32.42 | 107878 | 114819
18 | 25:30.70 | 2:17.29 | 114820 | 125123
19 | 27:48.24 | 1:24.13 | 125124 | 131436
20 | 29:12.37 | 1:27.49 | 131437 | 138010
21 | 30:40.11 | 2:50.43 | 138011 | 150803
22 | 33:30.54 | 2:15.54 | 150804 | 160982
23 | 35:46.33 | 1:44.38 | 160983 | 168820
24 | 37:30.71 | 1:33.59 | 168821 | 175854
25 | 39:04.55 | 2:00.48 | 175855 | 184902
26 | 41:05.28 | 0:58.65 | 184903 | 189317
27 | 42:04.18 | 2:10.26 | 189318 | 199093
28 | 44:14.44 | 1:21.12 | 199094 | 205180
29 | 45:35.56 | 2:14.17 | 205181 | 215247
30 | 47:49.73 | 1:27.70 | 215248 | 221842
31 | 49:17.68 | 2:56.34 | 221843 | 235076
32 | 52:14.27 | 1:14.16 | 235077 | 240642
33 | 53:28.43 | 1:09.12 | 240643 | 245829
34 | 54:37.55 | 1:36.08 | 245830 | 253037
35 | 56:13.63 | 2:20.55 | 253038 | 263592
36 | 58:34.43 | 1:22.68 | 263593 | 269810
37 | 59:57.36 | 1:48.55 | 269811 | 277965
38 | 61:46.16 | 0:47.33 | 277966 | 281523
39 | 62:33.49 | 1:20.64 | 281524 | 287587
40 | 63:54.38 | 1:27.06 | 287588 | 294118
41 | 65:21.44 | 1:33.68 | 294119 | 301161
42 | 66:55.37 | 4:17.53 | 301162 | 320489
43 | 71:13.15 | 1:37.23 | 320490 | 327787
44 | 72:50.38 | 4:06.45 | 327788 | 346282
45 | 76:57.08 | 1:06.39 | 346283 | 351271
46 | 78:03.47 | 0:50.12 | 351272 | 355033
Range status and errors
Selected range
Filename C:\Documents and Settings\Мария\Рабочий стол\TEMP\Schumann\CD 9\Graham Johnson - Schumann Album für die Jugend Op.68.wav
Peak level 100.0 %
Extraction speed 4.5 X
Range quality 100.0 %
Copy CRC 8E774006
Copy OK
No errors occurred
AccurateRip summary
Track 1 not present in database
Track 2 not present in database
Track 3 not present in database
Track 4 not present in database
Track 5 not present in database
Track 6 not present in database
Track 7 not present in database
Track 8 not present in database
Track 9 not present in database
Track 10 not present in database
Track 11 not present in database
Track 12 not present in database
Track 13 not present in database
Track 14 not present in database
Track 15 not present in database
Track 16 not present in database
Track 17 not present in database
Track 18 not present in database
Track 19 not present in database
Track 20 not present in database
Track 21 not present in database
Track 22 not present in database
Track 23 not present in database
Track 24 not present in database
Track 25 not present in database
Track 26 not present in database
Track 27 not present in database
Track 28 not present in database
Track 29 not present in database
Track 30 not present in database
Track 31 not present in database
Track 32 not present in database
Track 33 not present in database
Track 34 not present in database
Track 35 not present in database
Track 36 not present in database
Track 37 not present in database
Track 38 not present in database
Track 39 not present in database
Track 40 not present in database
Track 41 not present in database
Track 42 not present in database
Track 43 not present in database
Track 44 not present in database
Track 45 not present in database
Track 46 not present in database
None of the tracks are present in the AccurateRip database
End of status report
==== Log checksum CB83A2655A7E48BD4F64EDDA06850ABE7703CEE076163636DC4AC5C24643AA3E ====
Exact Audio Copy V1.0 beta 3 from 29. August 2011
EAC extraction logfile from 25. July 2012, 20:42
Various Artists / Schumann (R): Songs, Vol. 11
Used drive : HL-DT-STRW/DVD GCC-T10N Adapter: 1 ID: 0
Read mode : Secure
Utilize accurate stream : Yes
Defeat audio cache : Yes
Make use of C2 pointers : No
Read offset correction : 102
Overread into Lead-In and Lead-Out : No
Fill up missing offset samples with silence : Yes
Delete leading and trailing silent blocks : No
Null samples used in CRC calculations : Yes
Used interface : Native Win32 interface for Win NT & 2000
Used output format : User Defined Encoder
Selected bitrate : 128 kBit/s
Quality : High
Add ID3 tag : No
Command line compressor : C:\Program Files\Exact Audio Copy\Flac\flac.exe
Additional command line options : -8 -V -T "ARTIST=%artist%" -T "TITLE=%title%" -T "ALBUM=%albumtitle%" -T "DATE=%year%" -T "TRACKNUMBER=%tracknr%" -T "GENRE=%genre%" -T "PERFORMER=%albuminterpret%" -T "COMPOSER=%composer%" %haslyrics%--tag-from-file=LYRICS="%lyricsfile%"%haslyrics% -T "ALBUMARTIST=%albumartist%" -T "DISCNUMBER=%cdnumber%" -T "TOTALDISCS=%totalcds%" -T "TOTALTRACKS=%numtracks%" -T "COMMENT=%comment%" %source% -o %dest%
TOC of the extracted CD
Track | Start | Length | Start sector | End sector
---------------------------------------------------------
1 | 0:00.06 | 1:40.14 | 6 | 7519
2 | 1:40.20 | 2:19.08 | 7520 | 17952
3 | 3:59.28 | 2:11.21 | 17953 | 27798
4 | 6:10.49 | 1:46.63 | 27799 | 35811
5 | 7:57.37 | 2:28.27 | 35812 | 46938
6 | 10:25.64 | 3:24.72 | 46939 | 62310
7 | 13:50.61 | 3:38.17 | 62311 | 78677
8 | 17:29.03 | 3:18.37 | 78678 | 93564
9 | 20:47.40 | 2:13.36 | 93565 | 103575
10 | 23:01.01 | 2:38.19 | 103576 | 115444
11 | 25:39.20 | 2:08.31 | 115445 | 125075
12 | 27:47.51 | 4:07.52 | 125076 | 143652
13 | 31:55.28 | 2:02.01 | 143653 | 152803
14 | 33:57.29 | 3:48.02 | 152804 | 169905
15 | 37:45.31 | 2:50.04 | 169906 | 182659
16 | 40:35.35 | 4:10.30 | 182660 | 201439
17 | 44:45.65 | 3:04.44 | 201440 | 215283
18 | 47:50.34 | 1:52.30 | 215284 | 223713
19 | 49:42.64 | 3:01.02 | 223714 | 237290
20 | 52:43.66 | 2:36.24 | 237291 | 249014
21 | 55:20.15 | 1:42.05 | 249015 | 256669
22 | 57:02.20 | 1:55.47 | 256670 | 265341
23 | 58:57.67 | 1:57.41 | 265342 | 274157
24 | 60:55.33 | 2:50.15 | 274158 | 286922
25 | 63:45.48 | 4:34.11 | 286923 | 307483
26 | 68:19.59 | 2:40.27 | 307484 | 319510
27 | 71:00.11 | 2:19.44 | 319511 | 329979
28 | 73:19.55 | 4:54.74 | 329980 | 352103
Range status and errors
Selected range
Filename C:\Documents and Settings\Мария\Рабочий стол\TEMP\Schumann\CD 11\Various Artists - Schumann (R)- Songs, Vol. 11.wav
Peak level 99.8 %
Extraction speed 4.3 X
Range quality 100.0 %
Copy CRC D8C3221B
Copy OK
No errors occurred
AccurateRip summary
Track 1 accurately ripped (confidence 2) [0386BF16] (AR v2)
Track 2 accurately ripped (confidence 2) [08EC652D] (AR v2)
Track 3 accurately ripped (confidence 2) [353F0A2D] (AR v2)
Track 4 accurately ripped (confidence 2) [CF9E2784] (AR v2)
Track 5 accurately ripped (confidence 2) [371A6056] (AR v2)
Track 6 accurately ripped (confidence 2) [8E1853E0] (AR v2)
Track 7 accurately ripped (confidence 2) [16923147] (AR v2)
Track 8 accurately ripped (confidence 2) [E216D602] (AR v2)
Track 9 accurately ripped (confidence 2) [300487F5] (AR v2)
Track 10 accurately ripped (confidence 2) [317D574C] (AR v2)
Track 11 accurately ripped (confidence 2) [E7ABE9DE] (AR v2)
Track 12 accurately ripped (confidence 2) [D26E8AC5] (AR v2)
Track 13 accurately ripped (confidence 2) [8D5E7EFD] (AR v2)
Track 14 accurately ripped (confidence 2) [A321ECE1] (AR v2)
Track 15 accurately ripped (confidence 2) [99BF56BD] (AR v2)
Track 16 accurately ripped (confidence 2) [98C79757] (AR v2)
Track 17 accurately ripped (confidence 2) [190DC088] (AR v2)
Track 18 accurately ripped (confidence 2) [1972D5DE] (AR v2)
Track 19 accurately ripped (confidence 2) [7A6A24AB] (AR v2)
Track 20 accurately ripped (confidence 2) [B3603823] (AR v2)
Track 21 accurately ripped (confidence 2) [0C55366D] (AR v2)
Track 22 accurately ripped (confidence 2) [52206D12] (AR v2)
Track 23 accurately ripped (confidence 2) [3C796787] (AR v2)
Track 24 accurately ripped (confidence 2) [B6593836] (AR v2)
Track 25 accurately ripped (confidence 2) [5101B83C] (AR v2)
Track 26 accurately ripped (confidence 2) [FE14CF09] (AR v2)
Track 27 accurately ripped (confidence 2) [721DE1DB] (AR v2)
Track 28 accurately ripped (confidence 2) [3F1B0C2C] (AR v2)
All tracks accurately ripped
End of status report
==== Log checksum 6EFA37A80268DE129278B92832E9080224AD01135BFD00F4847BE5D05C31BADC ====


Скачать торрент 2.78 ГБ


Download
Для скачивания .torrent файлов необходима регистрация
Сайт не распространяет и не хранит электронные версии произведений, а лишь предоставляет доступ к создаваемому пользователями каталогу ссылок на торрент-файлы, которые содержат только списки хеш-сумм

Страница 1 из 1

Ответить на тему

   Похожие торренты   Торрент