Регистрация ·  Логин: Пароль: Запомнить   · Забыли пароль?




Ответить на тему
Статистика раздачи
Размер: 297.87 МБ | Зарегистрирован: 10 мар 2018, 13:23 | .torrent скачан: 0 раз(а)
Сидеров: [ 0  | 0 байт/сек ]   Личеров: [ 0  | 0 байт/сек ]   DHT: [ 0 / 0 ]
Автор Сообщение

Модератор
Аватара пользователя

Стаж: 6 лет
Сообщения: 7870
Молдова

Сообщение 10 мар 2018, 13:23 

[Цитировать]

HK Gruber - Frankenstein!!, Dancing in the Dark, Charivari, Perpetuum mobile

Жанр: Contemporary, classical
Год издания диска: 2007
Издатель (лейбл): Chandos
Аудиокодек: FLAC
Тип рипа: image+.cue
Битрейт аудио: lossless
Продолжительность: 1:10:26
Источник: собственный рип
Наличие сканов в содержимом раздачи: да

Треклист:
Frankenstein!!, a pandemonium for chansonnier and orchestra after children’s rhymes by H.C. Artmann
01 - Fanfare, Prologue
02 - I. a) Dedication
03 - b) Miss Dracula
04 - II. a) Goldfinger and Bond
05 - b) John Wayne
06 - c) Monster
07 - III. A Mi Ma Monsterlet
08 - IV. Fanfare, Intermezzo (Werewolf’s Serenade)
09 - V. Frankenstein
10 - VI. Rat Song and Crusoe Song
11 - VII. Mr Superman
12 - VIII. Finale
13 - a) The Green-haired Man
14 - b) Batman and Robin
15 - c) Monsters in the Park
16 - d) Litany
17 - e) Hello, hello, Herr Frankenstein
18 - f) Grete Muller’s Adieu
19 - Fanfare, Epilogue
20 - Perpetuum mobile, Op.257 [by Johann Strauss II (1825 –1899)]
21 - Charivari, an Austrian Journal for Orchestra
Dancing in the Dark, for large orchestra
22 - I. Andante pesante
23 - II. Allegro moderato
Исполнители:
BBC Philharmonic
HK Gruber - chansonnier (1-19) / conductor (1-23)

Код:
Exact Audio Copy V1.0 beta 2 from 29. April 2011
Отчёт EAC об извлечении, выполненном 20. сентября 2011, 14:28
HK Gruber / Frankenstein!!, etc
Дисковод: TSSTcorpCDDVDW SH-S202H   Adapter: 3  ID: 0
Режим чтения                 : Достоверность
Использование точного потока : Да
Отключение кэша аудио        : Да
Использование указателей C2  : Нет
Коррекция смещения при чтении                     : 6
Способность читать области Lead-in и Lead-out     : Нет
Заполнение пропущенных сэмплов тишиной            : Да
Удаление блоков с тишиной в начале и конце        : Нет
При вычислениях CRC использовались нулевые сэмплы : Да
Интерфейс                                         : Встроенный Win32-интерфейс для Win NT/2000
Выходной формат : Внутренние WAV-операции
Формат сэмплов  : 44.100 Гц; 16 бит; стерео
TOC извлечённого CD
     Трек |   Старт  | Длительность | Начальный сектор | Конечный сектор
    ---------------------------------------------------------------------
       1  |  0:00.00 |    1:24.38   |           0      |       6337
       2  |  1:24.38 |    1:12.50   |        6338      |      11787
       3  |  2:37.13 |    2:00.25   |       11788      |      20812
       4  |  4:37.38 |    1:56.05   |       20813      |      29517
       5  |  6:33.43 |    2:05.10   |       29518      |      38902
       6  |  8:38.53 |    1:52.20   |       38903      |      47322
       7  | 10:30.73 |    2:05.00   |       47323      |      56697
       8  | 12:35.73 |    2:05.50   |       56698      |      66122
       9  | 14:41.48 |    1:00.05   |       66123      |      70627
      10  | 15:41.53 |    4:46.00   |       70628      |      92077
      11  | 20:27.53 |    2:14.30   |       92078      |     102157
      12  | 22:42.08 |    1:08.10   |      102158      |     107267
      13  | 23:50.18 |    2:14.30   |      107268      |     117347
      14  | 26:04.48 |    0:27.65   |      117348      |     119437
      15  | 26:32.38 |    1:31.15   |      119438      |     126277
      16  | 28:03.53 |    0:30.25   |      126278      |     128552
      17  | 28:34.03 |    2:24.30   |      128553      |     139382
      18  | 30:58.33 |    0:24.15   |      139383      |     141197
      19  | 31:22.48 |    1:07.32   |      141198      |     146254
      20  | 32:30.05 |    2:52.41   |      146255      |     159195
      21  | 35:22.46 |   10:56.56   |      159196      |     208451
      22  | 46:19.27 |   17:00.35   |      208452      |     284986
      23  | 63:19.62 |    7:50.32   |      284987      |     320268
Характеристики диапазона извлечения и сообщения об ошибках
Выбранный диапазон
     Имя файла D:\HK Gruber - Frankenstein!!, etc.wav
     Пиковый уровень 93.4 %
     Скорость извлечения 4.3 X
     Качество диапазона 100.0 %
     CRC теста 32E23876
     CRC копии 32E23876
     Копирование... OK
Ошибок не произошло
Конец отчёта


Скачать торрент 297.87 МБ


Download
Для скачивания .torrent файлов необходима регистрация
Сайт не распространяет и не хранит электронные версии произведений, а лишь предоставляет доступ к создаваемому пользователями каталогу ссылок на торрент-файлы, которые содержат только списки хеш-сумм

Страница 1 из 1

Ответить на тему

   Похожие торренты   Торрент