Регистрация ·  Логин: Пароль: Запомнить   · Забыли пароль?




Ответить на тему
Статистика раздачи
Размер: 671.1 МБ | Зарегистрирован: 10 мар 2018, 13:23 | .torrent скачан: 0 раз(а)
Сидеров: [ 0  | 0 байт/сек ]   Личеров: [ 0  | 0 байт/сек ]   DHT: [ 0 / 0 ]
Автор Сообщение

Модератор
Аватара пользователя

Стаж: 6 лет
Сообщения: 7870
Молдова

Сообщение 10 мар 2018, 13:23 

[Цитировать]

Johannes Ciconia - Opera Omnia

Жанр: Renaissance
Страна-производитель диска: Austria
Год издания диска: 2011
Издатель (лейбл): Ricercar
Номер по каталогу: 316
Дата записи: La Morra - Boswill, Alte Kirche (Künstlerhaus), janvier 2010; Diabolus in Musica - Collégiale de Champeaux, septembre 2010
Аудиокодек: FLAC
Тип рипа: tracks+.cue
Битрейт аудио: lossless
Продолжительность: CD1 - 1:05:49/CD2 - 1:13:43
Наличие сканов в содержимом раздачи: да
Треклист:
CD1
Musique profan
1. Una panthera in compagnia di marte (Eve Kopli, Hanna Järveläinen, Els Janssens, Corina Marti [flutes à bec], Michal Gondko [luth, guiterne], Elizabeth Rumsey)
2. Sus un' fontayne (Els Janssens, Michal Gondko [luth], Elizabeth Rumsey)
3. Che nel servir (Els Janssens, Michal Gondko [luth], Elizabeth Rumsey)
4. Le ray au soleyl (Eve Kopli, Hanna Järveläinen, Javier Robledano Cabrera, Corina Marti [flutes à bec], Michal Gondko [guiterne], Elizabeth Rumsey)
5. Caçando un giorno (Corina Marti [clavicembalum])
6. Per quella strada (Eve Kopli, Hanna Järveläinen, Corina Marti [flutes à bec], Elizabeth Rumsey)
7. Con lagreme (Hanna Järveläinen, Javier Robledano Cabrera)
8. Chi vole amar (Michal Gondko [luth])
9. Dolçe fortuna (Eve Kopli, Javier Robledano Cabrera)
10. Gli atti col dançar (Hanna Järveläinen, Corina Marti [clavicembalum])
11. La fiamma del to amor (Hanna Järveläinen, Javier Robledano Cabrera)
12. Poy che morir (Els Janssens, Elizabeth Rumsey)
13. Aler m'en veus (Eve Kopli, Corina Marti [flutes à bec])
14. I cani sono fuora (Corina Marti [clavicembalum])
15. Ligiadra donna (Eve Kopli, Javier Robledano Cabrera, Corina Marti [clavicembalum], Michal Gondko [guiterne])
16. Merçé o morte (Eve Kopli, Javier Robledano Cabrera, Michal Gondko [guiterne])
17. O rosa bella (Hanna Järveläinen, Javier Robledano Cabrera, Elizabeth Rumsey)
Contrafacta/Canon
18. Regina gloriosa (Guillermo Perez)
19. O Petre, Christi discipule (Estelle Nadau, Aino Lund-Lavoipierre)
20. O beatum incendium (Raphaёl Boulay, Olivier Germond)
21. Quod jactatur (Aino Lund-Lavoipierre, Olivier Germond, Emmanuel Vistorky)
CD2
Motets et mouvements de messe
1. Petrum Marcello Venetum/O Petre antistes inclite (Estelle Nadau, Aino Lund-Lavoipierre, Guillermo Perez)
2. O Virum Omnimoda / O Lux et Decus / O Beate Nicholaë (Raphaёl Boulay, Olivier Germond, Emmanuel Vistorky, Phillipe Roche)
3. Ut te per omnes / Ingens alumnus Padue (Andrés Rojas-Urrego, Frédéric Betous, Franck Poitrineau, Fabien Dornic)
4. Gloria No. 3 (Raphaёl Boulay, Olivier Germond, Emmanuel Vistorky, Phillipe Roche)
5. Credo No. 4 (Raphaёl Boulay, Olivier Germond, Emmanuel Vistorky, Phillipe Roche)
6. Gloria spiritus et alme No. 6 (Estelle Nadau, Aino Lund-Lavoipierre, Guillermo Perez)
7. Venecie, mundi splendor / Michael qui Stena domus (Aino Lund-Lavoipierre, Estelle Nadau, Guillermo Perez, Raphaёl Boulay)
8. Gloria suscipe trinitas (Aino Lund-Lavoipierre, Estelle Nadau, Guillermo Perez, Andrés Rojas-Urrego)
9. O beatum incendium (Guillermo Perez)
10. O felix templum jubila (Andrés Rojas-Urrego, Frédéric Betous, Franck Poitrineau, Fabien Dornic)
11. Gloria No. 9 (Raphaёl Boulay, Olivier Germond, Emmanuel Vistorky)
12. Doctorum principem / Melodia suavissiama / Vir mitis (Andrés Rojas-Urrego, Frédéric Betous, Raphaёl Boulay, Olivier Germond)
13. Gloria No. 1 (Olivier Germond, Raphaёl Boulay, Phillipe Roche)
14. Credo No. 2 (Olivier Germond, Raphaёl Boulay, Emmanuel Vistorky)
15. Albane, misse celitus/Albane doctor maxime (Estelle Nadau, Aino Lund-Lavoipierre, Guillermo Perez)
16. Gloria spiritus et alme No. 5 (Olivier Germond, Raphaёl Boulay, Emmanuel Vistorky)
17. Credo No. 10 (Andrés Rojas-Urrego, Frédéric Betous, Raphaёl Boulay, Olivier Germond)
18. Gloria No. 8 (Aino Lund-Lavoipierre, Guillermo Perez)
19. O Padua sidus praeclarum (Olivier Germond, Raphaёl Boulay, Emmanuel Vistorky)
Исполнители:
LA MORRA
Eve Kopli - soprano
Hanna Järveläinen - soprano
Els Janssens - mezzo-soprano
Javier Robledano Cabrera - contre-ténor
Corina Marti - flutes à bec, clavicembalum
Michal Gondko - luth, guiterne
Elizabeth Rumsey - vièle
direction: Corina Marti & Michal Gondko
DIABOLUS IN MUSICA
Aino Lund-Lavoipierre - soprano
Estelle Nadau - soprano
Frédéric Betous - alto
Andrés Rojas-Urrego - alto
Raphaёl Boulay - ténor
Olivier Germond - ténor
Emmanuel Vistorky - baryton-basse
Phillipe Roche - basse
Guillermo Perez - organetto
Franck Poitrineau - saqueboute
Fabien Dornic - saqueboute
direction: Antoine Guerber
За диск спасибо peotuvave
Код:
Exact Audio Copy V1.0 beta 3 from 29. August 2011
EAC extraction logfile from 13. November 2012, 2:50
Diabolus in Musica; La Morra / Johannes Ciconia - Opera Omnia (CD 1) - Musique profane; Contrafacta
Used drive  : PIONEER DVD-RW  DVR-219L   Adapter: 2  ID: 0
Read mode               : Secure
Utilize accurate stream : Yes
Defeat audio cache      : Yes
Make use of C2 pointers : No
Read offset correction                      : 6
Overread into Lead-In and Lead-Out          : No
Fill up missing offset samples with silence : Yes
Delete leading and trailing silent blocks   : No
Null samples used in CRC calculations       : Yes
Used interface                              : Native Win32 interface for Win NT & 2000
Gap handling                                : Appended to previous track
Used output format              : User Defined Encoder
Selected bitrate                : 768 kBit/s
Quality                         : High
Add ID3 tag                     : No
Command line compressor         : C:\Program Files (x86)\Exact Audio Copy\FLAC\FLAC.EXE
Additional command line options : -8 -V -T "ARTIST=%artist%" -T "TITLE=%title%" -T "ALBUM=%albumtitle%" -T "DATE=%year%" -T "TRACKNUMBER=%tracknr%" -T "GENRE=%genre%" -T "COMMENT=%comment%" -T "BAND=%albuminterpret%" -T "ALBUMARTIST=%albuminterpret%" -T "COMPOSER=%composer%" %haslyrics%--tag-from-file=LYRICS="%lyricsfile%"%haslyrics% -T "DISCNUMBER=%cdnumber%" -T "TOTALDISCS=%totalcds%" -T "TOTALTRACKS=%numtracks%" %hascover%--picture="%coverfile%"%hascover% %source% -o %dest%
TOC of the extracted CD
     Track |   Start  |  Length  | Start sector | End sector
    ---------------------------------------------------------
        1  |  0:00.00 |  5:30.73 |         0    |    24822
        2  |  5:30.73 |  7:47.47 |     24823    |    59894
        3  | 13:18.45 |  3:10.72 |     59895    |    74216
        4  | 16:29.42 |  1:32.12 |     74217    |    81128
        5  | 18:01.54 |  2:42.46 |     81129    |    93324
        6  | 20:44.25 |  4:44.37 |     93325    |   114661
        7  | 25:28.62 |  5:13.55 |    114662    |   138191
        8  | 30:42.42 |  2:29.27 |    138192    |   149393
        9  | 33:11.69 |  3:27.65 |    149394    |   164983
       10  | 36:39.59 |  2:08.21 |    164984    |   174604
       11  | 38:48.05 |  3:12.68 |    174605    |   189072
       12  | 42:00.73 |  5:19.07 |    189073    |   213004
       13  | 47:20.05 |  4:45.42 |    213005    |   234421
       14  | 52:05.47 |  2:46.42 |    234422    |   246913
       15  | 54:52.14 |  4:16.42 |    246914    |   266155
       16  | 59:08.56 |  3:42.05 |    266156    |   282810
       17  | 62:50.61 |  5:52.17 |    282811    |   309227
       18  | 68:43.03 |  1:54.58 |    309228    |   317835
       19  | 70:37.61 |  3:15.29 |    317836    |   332489
       20  | 73:53.15 |  2:23.66 |    332490    |   343280
       21  | 76:17.06 |  1:33.53 |    343281    |   350308
Track  1
     Filename C:\Rips\Johannes Ciconia - Opera Omnia (2011)\CD 1\01 - Una panthera in compagnia di marte.wav
     Pre-gap length  0:00:02.00
     Peak level 64.1 %
     Extraction speed 4.6 X
     Track quality 99.9 %
     Test CRC 48D76511
     Copy CRC 48D76511
     Track not present in AccurateRip database
     Copy OK
Track  2
     Filename C:\Rips\Johannes Ciconia - Opera Omnia (2011)\CD 1\02 - Sus un' fontayne.wav
     Peak level 42.2 %
     Extraction speed 6.0 X
     Track quality 100.0 %
     Test CRC D18CA160
     Copy CRC D18CA160
     Track not present in AccurateRip database
     Copy OK
Track  3
     Filename C:\Rips\Johannes Ciconia - Opera Omnia (2011)\CD 1\03 - Chi nel servir.wav
     Peak level 42.8 %
     Extraction speed 5.6 X
     Track quality 100.0 %
     Test CRC 80560377
     Copy CRC 80560377
     Accurately ripped (confidence 1)  [25D88359]  (AR v1)
     Copy OK
Track  4
     Filename C:\Rips\Johannes Ciconia - Opera Omnia (2011)\CD 1\04 - Le ray au soleyl.wav
     Peak level 61.4 %
     Extraction speed 5.2 X
     Track quality 100.0 %
     Test CRC F2549B0F
     Copy CRC F2549B0F
     Accurately ripped (confidence 1)  [747CCC58]  (AR v1)
     Copy OK
Track  5
     Filename C:\Rips\Johannes Ciconia - Opera Omnia (2011)\CD 1\05 - Caçando un giorno (instrumentale).wav
     Peak level 14.7 %
     Extraction speed 6.1 X
     Track quality 100.0 %
     Test CRC FBED0A5E
     Copy CRC FBED0A5E
     Accurately ripped (confidence 1)  [5C730CEA]  (AR v1)
     Copy OK
Track  6
     Filename C:\Rips\Johannes Ciconia - Opera Omnia (2011)\CD 1\06 - Per quella strada.wav
     Peak level 42.9 %
     Extraction speed 6.2 X
     Track quality 99.9 %
     Test CRC B309EBFD
     Copy CRC B309EBFD
     Accurately ripped (confidence 1)  [781ADB45]  (AR v1)
     Copy OK
Track  7
     Filename C:\Rips\Johannes Ciconia - Opera Omnia (2011)\CD 1\07 - Con lagreme.wav
     Peak level 45.0 %
     Extraction speed 6.7 X
     Track quality 99.9 %
     Test CRC A5E1CBB2
     Copy CRC A5E1CBB2
     Accurately ripped (confidence 1)  [9BD19F23]  (AR v1)
     Copy OK
Track  8
     Filename C:\Rips\Johannes Ciconia - Opera Omnia (2011)\CD 1\08 - Chi vole amar (instrumentale).wav
     Peak level 10.6 %
     Extraction speed 5.7 X
     Track quality 99.9 %
     Test CRC 5177A6A0
     Copy CRC 5177A6A0
     Accurately ripped (confidence 1)  [9A324B2A]  (AR v1)
     Copy OK
Track  9
     Filename C:\Rips\Johannes Ciconia - Opera Omnia (2011)\CD 1\09 - Dolçe Fortuna.wav
     Peak level 80.2 %
     Extraction speed 7.5 X
     Track quality 100.0 %
     Test CRC EED14EF4
     Copy CRC EED14EF4
     Accurately ripped (confidence 1)  [51FD1040]  (AR v1)
     Copy OK
Track 10
     Filename C:\Rips\Johannes Ciconia - Opera Omnia (2011)\CD 1\10 - Gli atti col dançar.wav
     Peak level 32.7 %
     Extraction speed 6.9 X
     Track quality 100.0 %
     Test CRC 3476C3FB
     Copy CRC 3476C3FB
     Accurately ripped (confidence 1)  [97B7300D]  (AR v1)
     Copy OK
Track 11
     Filename C:\Rips\Johannes Ciconia - Opera Omnia (2011)\CD 1\11 - La fiamma del to amor.wav
     Peak level 47.6 %
     Extraction speed 6.7 X
     Track quality 99.9 %
     Test CRC 557240D7
     Copy CRC 557240D7
     Accurately ripped (confidence 1)  [759DCC5C]  (AR v1)
     Copy OK
Track 12
     Filename C:\Rips\Johannes Ciconia - Opera Omnia (2011)\CD 1\12 - Poy che morir.wav
     Peak level 49.8 %
     Extraction speed 8.5 X
     Track quality 100.0 %
     Test CRC FB3BBCE8
     Copy CRC FB3BBCE8
     Accurately ripped (confidence 1)  [A246365F]  (AR v1)
     Copy OK
Track 13
     Filename C:\Rips\Johannes Ciconia - Opera Omnia (2011)\CD 1\13 - Aler m'en veus.wav
     Peak level 45.0 %
     Extraction speed 8.8 X
     Track quality 100.0 %
     Test CRC 8BA2BB2A
     Copy CRC 8BA2BB2A
     Accurately ripped (confidence 1)  [FC49CBAD]  (AR v1)
     Copy OK
Track 14
     Filename C:\Rips\Johannes Ciconia - Opera Omnia (2011)\CD 1\14 - I cani sono fuora (instrumentale).wav
     Peak level 15.9 %
     Extraction speed 8.2 X
     Track quality 100.0 %
     Test CRC 73EDBA89
     Copy CRC 73EDBA89
     Accurately ripped (confidence 1)  [1A555827]  (AR v1)
     Copy OK
Track 15
     Filename C:\Rips\Johannes Ciconia - Opera Omnia (2011)\CD 1\15 - Ligiadra donna.wav
     Peak level 80.4 %
     Extraction speed 8.5 X
     Track quality 100.0 %
     Test CRC 3DC6BD44
     Copy CRC 3DC6BD44
     Accurately ripped (confidence 1)  [0561DA64]  (AR v1)
     Copy OK
Track 16
     Filename C:\Rips\Johannes Ciconia - Opera Omnia (2011)\CD 1\16 - Merçe o morte.wav
     Peak level 73.4 %
     Extraction speed 7.6 X
     Track quality 99.9 %
     Test CRC 7638FE2A
     Copy CRC 7638FE2A
     Accurately ripped (confidence 1)  [02428976]  (AR v1)
     Copy OK
Track 17
     Filename C:\Rips\Johannes Ciconia - Opera Omnia (2011)\CD 1\17 - O rosa bella.wav
     Peak level 66.3 %
     Extraction speed 9.1 X
     Track quality 99.9 %
     Test CRC 7FD6C52E
     Copy CRC 7FD6C52E
     Accurately ripped (confidence 1)  [AEA00BC3]  (AR v1)
     Copy OK
Track 18
     Filename C:\Rips\Johannes Ciconia - Opera Omnia (2011)\CD 1\18 - Regina gloriosa.wav
     Peak level 18.8 %
     Extraction speed 8.3 X
     Track quality 100.0 %
     Test CRC 8D1279CE
     Copy CRC 8D1279CE
     Accurately ripped (confidence 1)  [7D535BA8]  (AR v1)
     Copy OK
Track 19
     Filename C:\Rips\Johannes Ciconia - Opera Omnia (2011)\CD 1\19 - O Petre, Christi discipule.wav
     Peak level 71.8 %
     Extraction speed 9.4 X
     Track quality 100.0 %
     Test CRC 6680A823
     Copy CRC 6680A823
     Accurately ripped (confidence 1)  [7CDE2938]  (AR v1)
     Copy OK
Track 20
     Filename C:\Rips\Johannes Ciconia - Opera Omnia (2011)\CD 1\20 - O beatum incendium.wav
     Peak level 57.4 %
     Extraction speed 9.2 X
     Track quality 100.0 %
     Test CRC A44D3E37
     Copy CRC A44D3E37
     Accurately ripped (confidence 1)  [897AC403]  (AR v1)
     Copy OK
Track 21
     Filename C:\Rips\Johannes Ciconia - Opera Omnia (2011)\CD 1\21 - Quod jactatur.wav
     Peak level 55.4 %
     Extraction speed 8.1 X
     Track quality 100.0 %
     Test CRC 64D54F0C
     Copy CRC 64D54F0C
     Accurately ripped (confidence 1)  [25E99568]  (AR v1)
     Copy OK
19 track(s) accurately ripped
 2 track(s) not present in the AccurateRip database
Some tracks could not be verified as accurate
No errors occurred
End of status report
---- CUETools DB Plugin V2.1.3
[CTDB TOCID: TWTHSCyiB3xMSB6198hWnDv6N9c-] found, Submit result: TWTHSCyiB3xMSB6198hWnDv6N9c- has been confirmed
[81a0b374] (2/2) Accurately ripped
==== Log checksum BF280A62C344B97B8D9D3D838B3C0BF0F4FB99D40A83D4357B7B270A083AA844 ====
Код:
Exact Audio Copy V1.0 beta 3 from 29. August 2011
EAC extraction logfile from 13. November 2012, 3:38
Diabolus in Musica / Johannes Ciconia - Opera Omnia (CD 2) - Musique profane; Contrafacta
Used drive  : PIONEER DVD-RW  DVR-219L   Adapter: 2  ID: 0
Read mode               : Secure
Utilize accurate stream : Yes
Defeat audio cache      : Yes
Make use of C2 pointers : No
Read offset correction                      : 6
Overread into Lead-In and Lead-Out          : No
Fill up missing offset samples with silence : Yes
Delete leading and trailing silent blocks   : No
Null samples used in CRC calculations       : Yes
Used interface                              : Native Win32 interface for Win NT & 2000
Gap handling                                : Appended to previous track
Used output format              : User Defined Encoder
Selected bitrate                : 768 kBit/s
Quality                         : High
Add ID3 tag                     : No
Command line compressor         : C:\Program Files (x86)\Exact Audio Copy\FLAC\FLAC.EXE
Additional command line options : -8 -V -T "ARTIST=%artist%" -T "TITLE=%title%" -T "ALBUM=%albumtitle%" -T "DATE=%year%" -T "TRACKNUMBER=%tracknr%" -T "GENRE=%genre%" -T "COMMENT=%comment%" -T "BAND=%albuminterpret%" -T "ALBUMARTIST=%albuminterpret%" -T "COMPOSER=%composer%" %haslyrics%--tag-from-file=LYRICS="%lyricsfile%"%haslyrics% -T "DISCNUMBER=%cdnumber%" -T "TOTALDISCS=%totalcds%" -T "TOTALTRACKS=%numtracks%" %hascover%--picture="%coverfile%"%hascover% %source% -o %dest%
TOC of the extracted CD
     Track |   Start  |  Length  | Start sector | End sector
    ---------------------------------------------------------
        1  |  0:00.00 |  3:12.55 |         0    |    14454
        2  |  3:12.55 |  2:25.17 |     14455    |    25346
        3  |  5:37.72 |  2:56.01 |     25347    |    38547
        4  |  8:33.73 |  3:17.01 |     38548    |    53323
        5  | 11:50.74 |  4:05.14 |     53324    |    71712
        6  | 15:56.13 |  4:51.13 |     71713    |    93550
        7  | 20:47.26 |  3:09.31 |     93551    |   107756
        8  | 23:56.57 |  6:43.39 |    107757    |   138020
        9  | 30:40.21 |  2:33.20 |    138021    |   149515
       10  | 33:13.41 |  3:33.24 |    149516    |   165514
       11  | 36:46.65 |  4:32.25 |    165515    |   185939
       12  | 41:19.15 |  2:57.29 |    185940    |   199243
       13  | 44:16.44 |  3:48.34 |    199244    |   216377
       14  | 48:05.03 |  5:51.12 |    216378    |   242714
       15  | 53:56.15 |  3:11.38 |    242715    |   257077
       16  | 57:07.53 |  4:39.66 |    257078    |   278068
       17  | 61:47.44 |  5:59.09 |    278069    |   305002
       18  | 67:46.53 |  2:41.71 |    305003    |   317148
       19  | 70:28.49 |  3:14.64 |    317149    |   331762
Track  1
     Filename C:\Rips\Johannes Ciconia - Opera Omnia (2011)\CD 2\01 - Petrum Marcello Venetum , O Petre antistes inclite.wav
     Pre-gap length  0:00:02.00
     Peak level 56.5 %
     Extraction speed 4.5 X
     Track quality 100.0 %
     Test CRC 921C7E2E
     Copy CRC 921C7E2E
     Accurately ripped (confidence 1)  [2AB1D072]  (AR v1)
     Copy OK
Track  2
     Filename C:\Rips\Johannes Ciconia - Opera Omnia (2011)\CD 2\02 - O virum omnimoda , O lux et decus , O beate Nicholae.wav
     Peak level 41.9 %
     Extraction speed 4.7 X
     Track quality 100.0 %
     Test CRC F810D2D0
     Copy CRC F810D2D0
     Accurately ripped (confidence 1)  [2A844828]  (AR v1)
     Copy OK
Track  3
     Filename C:\Rips\Johannes Ciconia - Opera Omnia (2011)\CD 2\03 - Ut per te omnes celitus , Ingens alumnus Padue.wav
     Peak level 77.7 %
     Extraction speed 5.2 X
     Track quality 100.0 %
     Test CRC 7270DD44
     Copy CRC 7270DD44
     Accurately ripped (confidence 1)  [C7463299]  (AR v1)
     Copy OK
Track  4
     Filename C:\Rips\Johannes Ciconia - Opera Omnia (2011)\CD 2\04 - Gloria no. 3.wav
     Peak level 40.9 %
     Extraction speed 5.6 X
     Track quality 100.0 %
     Test CRC BF1FE161
     Copy CRC BF1FE161
     Accurately ripped (confidence 1)  [D98D7344]  (AR v1)
     Copy OK
Track  5
     Filename C:\Rips\Johannes Ciconia - Opera Omnia (2011)\CD 2\05 - Credo no. 4.wav
     Peak level 44.4 %
     Extraction speed 6.1 X
     Track quality 100.0 %
     Test CRC A7FA5DD9
     Copy CRC A7FA5DD9
     Accurately ripped (confidence 1)  [D2E2CCE2]  (AR v1)
     Copy OK
Track  6
     Filename C:\Rips\Johannes Ciconia - Opera Omnia (2011)\CD 2\06 - Gloria spiritus et alme no. 6.wav
     Peak level 79.9 %
     Extraction speed 6.0 X
     Track quality 99.9 %
     Test CRC 6EE7D4DC
     Copy CRC 6EE7D4DC
     Accurately ripped (confidence 1)  [C09C87A4]  (AR v1)
     Copy OK
Track  7
     Filename C:\Rips\Johannes Ciconia - Opera Omnia (2011)\CD 2\07 - Venecie, mundi splendor , Michael qui Stena domus.wav
     Peak level 91.5 %
     Extraction speed 6.6 X
     Track quality 100.0 %
     Test CRC 31BDB0D6
     Copy CRC 31BDB0D6
     Accurately ripped (confidence 1)  [67D514F8]  (AR v1)
     Copy OK
Track  8
     Filename C:\Rips\Johannes Ciconia - Opera Omnia (2011)\CD 2\08 - Gloria suscipe trinitas.wav
     Peak level 84.5 %
     Extraction speed 7.6 X
     Track quality 100.0 %
     Test CRC 4EA0C6AD
     Copy CRC 4EA0C6AD
     Accurately ripped (confidence 1)  [D8D515E5]  (AR v1)
     Copy OK
Track  9
     Filename C:\Rips\Johannes Ciconia - Opera Omnia (2011)\CD 2\09 - O beatum incendium.wav
     Peak level 17.7 %
     Extraction speed 6.5 X
     Track quality 100.0 %
     Test CRC D002D816
     Copy CRC D002D816
     Accurately ripped (confidence 1)  [F2A360E0]  (AR v1)
     Copy OK
Track 10
     Filename C:\Rips\Johannes Ciconia - Opera Omnia (2011)\CD 2\10 - O felix templum jubila.wav
     Peak level 49.4 %
     Extraction speed 7.6 X
     Track quality 100.0 %
     Test CRC 9AFB8617
     Copy CRC 9AFB8617
     Accurately ripped (confidence 1)  [146E3672]  (AR v1)
     Copy OK
Track 11
     Filename C:\Rips\Johannes Ciconia - Opera Omnia (2011)\CD 2\11 - Gloria no. 9.wav
     Peak level 45.5 %
     Extraction speed 8.3 X
     Track quality 100.0 %
     Test CRC E7BCBDE4
     Copy CRC E7BCBDE4
     Accurately ripped (confidence 1)  [F83DF359]  (AR v1)
     Copy OK
Track 12
     Filename C:\Rips\Johannes Ciconia - Opera Omnia (2011)\CD 2\12 - Doctorum principem , Melodia suavissima , Vir mitis.wav
     Peak level 50.4 %
     Extraction speed 7.9 X
     Track quality 100.0 %
     Test CRC 79CBA479
     Copy CRC 79CBA479
     Accurately ripped (confidence 1)  [18E26B5E]  (AR v1)
     Copy OK
Track 13
     Filename C:\Rips\Johannes Ciconia - Opera Omnia (2011)\CD 2\13 - Gloria no. 1.wav
     Peak level 39.5 %
     Extraction speed 8.4 X
     Track quality 100.0 %
     Test CRC ED7FEF31
     Copy CRC ED7FEF31
     Accurately ripped (confidence 1)  [415E078A]  (AR v1)
     Copy OK
Track 14
     Filename C:\Rips\Johannes Ciconia - Opera Omnia (2011)\CD 2\14 - Credo no. 2.wav
     Peak level 33.6 %
     Extraction speed 9.2 X
     Track quality 100.0 %
     Test CRC 10231AB8
     Copy CRC 10231AB8
     Accurately ripped (confidence 1)  [056B26FD]  (AR v1)
     Copy OK
Track 15
     Filename C:\Rips\Johannes Ciconia - Opera Omnia (2011)\CD 2\15 - Albane, misse celitus , Albane doctor maxime.wav
     Peak level 68.7 %
     Extraction speed 8.7 X
     Track quality 100.0 %
     Test CRC 9251245D
     Copy CRC 9251245D
     Accurately ripped (confidence 1)  [32DDC796]  (AR v1)
     Copy OK
Track 16
     Filename C:\Rips\Johannes Ciconia - Opera Omnia (2011)\CD 2\16 - Gloria spiritus et alme no. 5.wav
     Peak level 50.9 %
     Extraction speed 8.4 X
     Track quality 99.9 %
     Test CRC 217FD3CC
     Copy CRC 217FD3CC
     Accurately ripped (confidence 1)  [E9B5955E]  (AR v1)
     Copy OK
Track 17
     Filename C:\Rips\Johannes Ciconia - Opera Omnia (2011)\CD 2\17 - Credo no. 10.wav
     Peak level 58.4 %
     Extraction speed 9.9 X
     Track quality 100.0 %
     Test CRC 8B7D013D
     Copy CRC 8B7D013D
     Accurately ripped (confidence 1)  [3209C91F]  (AR v1)
     Copy OK
Track 18
     Filename C:\Rips\Johannes Ciconia - Opera Omnia (2011)\CD 2\18 - Gloria no. 8.wav
     Peak level 82.5 %
     Extraction speed 9.1 X
     Track quality 100.0 %
     Test CRC BAF56EFB
     Copy CRC BAF56EFB
     Accurately ripped (confidence 1)  [D25AC4FD]  (AR v1)
     Copy OK
Track 19
     Filename C:\Rips\Johannes Ciconia - Opera Omnia (2011)\CD 2\19 - O Padua sidus preclarum.wav
     Peak level 61.1 %
     Extraction speed 8.2 X
     Track quality 99.9 %
     Test CRC 461E2C35
     Copy CRC 461E2C35
     Accurately ripped (confidence 1)  [E38E66E5]  (AR v1)
     Copy OK
All tracks accurately ripped
No errors occurred
End of status report
---- CUETools DB Plugin V2.1.3
[CTDB TOCID: fGgkfFBbFfWM8u0MCMdjlCJ8ops-] found, Submit result: fGgkfFBbFfWM8u0MCMdjlCJ8ops- has been confirmed
[0a8791a2] (2/2) Accurately ripped
==== Log checksum 3F636CD9004ADC2D1CA6CA59D92E5C0198AE401B60D6A23565515BF03D440E5A ====
Код:
REM GENRE Classical
REM DATE 2011
REM DISCID 1D123E15
REM COMMENT "ExactAudioCopy v1.0b3"
CATALOG 5400439003163
PERFORMER "Diabolus in Musica; La Morra"
TITLE "Johannes Ciconia - Opera Omnia (CD 1) - Musique profane; Contrafacta"
FILE "01 - Una panthera in compagnia di marte.wav" WAVE
  TRACK 01 AUDIO
    TITLE "Una panthera in compagnia di marte"
    PERFORMER "La Morra"
    ISRC BER181031601
    INDEX 01 00:00:00
FILE "02 - Sus un' fontayne.wav" WAVE
  TRACK 02 AUDIO
    TITLE "Sus un' fontayne"
    PERFORMER "La Morra"
    ISRC BER181031602
    INDEX 01 00:00:00
FILE "03 - Chi nel servir.wav" WAVE
  TRACK 03 AUDIO
    TITLE "Chi nel servir"
    PERFORMER "La Morra"
    ISRC BER181031603
    INDEX 01 00:00:00
FILE "04 - Le ray au soleyl.wav" WAVE
  TRACK 04 AUDIO
    TITLE "Le ray au soleyl"
    PERFORMER "La Morra"
    ISRC BER181031604
    INDEX 01 00:00:00
FILE "05 - Caзando un giorno (instrumentale).wav" WAVE
  TRACK 05 AUDIO
    TITLE "Caзando un giorno (instrumentale)"
    PERFORMER "La Morra"
    ISRC BER181031605
    INDEX 01 00:00:00
FILE "06 - Per quella strada.wav" WAVE
  TRACK 06 AUDIO
    TITLE "Per quella strada"
    PERFORMER "La Morra"
    ISRC BER181031606
    INDEX 01 00:00:00
FILE "07 - Con lagreme.wav" WAVE
  TRACK 07 AUDIO
    TITLE "Con lagreme"
    PERFORMER "La Morra"
    ISRC BER181031607
    INDEX 01 00:00:00
FILE "08 - Chi vole amar (instrumentale).wav" WAVE
  TRACK 08 AUDIO
    TITLE "Chi vole amar (instrumentale)"
    PERFORMER "La Morra"
    ISRC BER181031608
    INDEX 01 00:00:00
FILE "09 - Dolзe Fortuna.wav" WAVE
  TRACK 09 AUDIO
    TITLE "Dolзe Fortuna"
    PERFORMER "La Morra"
    ISRC BER181031609
    INDEX 01 00:00:00
FILE "10 - Gli atti col danзar.wav" WAVE
  TRACK 10 AUDIO
    TITLE "Gli atti col danзar"
    PERFORMER "La Morra"
    ISRC BER181031610
    INDEX 01 00:00:00
FILE "11 - La fiamma del to amor.wav" WAVE
  TRACK 11 AUDIO
    TITLE "La fiamma del to amor"
    PERFORMER "La Morra"
    ISRC BER181031611
    INDEX 01 00:00:00
FILE "12 - Poy che morir.wav" WAVE
  TRACK 12 AUDIO
    TITLE "Poy che morir"
    PERFORMER "La Morra"
    ISRC BER181031612
    INDEX 01 00:00:00
FILE "13 - Aler m'en veus.wav" WAVE
  TRACK 13 AUDIO
    TITLE "Aler m'en veus"
    PERFORMER "La Morra"
    ISRC BER181031613
    INDEX 01 00:00:00
FILE "14 - I cani sono fuora (instrumentale).wav" WAVE
  TRACK 14 AUDIO
    TITLE "I cani sono fuora (instrumentale)"
    PERFORMER "La Morra"
    ISRC BER181031614
    INDEX 01 00:00:00
FILE "15 - Ligiadra donna.wav" WAVE
  TRACK 15 AUDIO
    TITLE "Ligiadra donna"
    PERFORMER "La Morra"
    ISRC BER181031615
    INDEX 01 00:00:00
FILE "16 - Merзe o morte.wav" WAVE
  TRACK 16 AUDIO
    TITLE "Merзe o morte"
    PERFORMER "La Morra"
    ISRC BER181031616
    INDEX 01 00:00:00
FILE "17 - O rosa bella.wav" WAVE
  TRACK 17 AUDIO
    TITLE "O rosa bella"
    PERFORMER "La Morra"
    ISRC BER181031617
    INDEX 01 00:00:00
FILE "18 - Regina gloriosa.wav" WAVE
  TRACK 18 AUDIO
    TITLE "Regina gloriosa"
    PERFORMER "Diabolus in Musica"
    ISRC BER181031618
    INDEX 01 00:00:00
FILE "19 - O Petre, Christi discipule.wav" WAVE
  TRACK 19 AUDIO
    TITLE "O Petre, Christi discipule"
    PERFORMER "Diabolus in Musica"
    ISRC BER181031619
    INDEX 01 00:00:00
FILE "20 - O beatum incendium.wav" WAVE
  TRACK 20 AUDIO
    TITLE "O beatum incendium"
    PERFORMER "Diabolus in Musica"
    ISRC BER181031620
    INDEX 01 00:00:00
FILE "21 - Quod jactatur.wav" WAVE
  TRACK 21 AUDIO
    TITLE "Quod jactatur"
    PERFORMER "Diabolus in Musica"
    ISRC BER181031621
    INDEX 01 00:00:00
Код:
REM GENRE Classical
REM DATE 2011
REM DISCID 2B114713
REM COMMENT "ExactAudioCopy v1.0b3"
CATALOG 5400439001367
PERFORMER "Diabolus in Musica"
TITLE "Johannes Ciconia - Opera Omnia (CD 2) - Musique profane; Contrafacta"
FILE "01 - Petrum Marcello Venetum , O Petre antistes inclite.wav" WAVE
  TRACK 01 AUDIO
    TITLE "Petrum Marcello Venetum / O Petre antistes inclite"
    PERFORMER "Diabolus in Musica"
    ISRC BER181013622
    INDEX 01 00:00:00
FILE "02 - O virum omnimoda , O lux et decus , O beate Nicholae.wav" WAVE
  TRACK 02 AUDIO
    TITLE "O virum omnimoda / O lux et decus / O beate Nicholae"
    PERFORMER "Diabolus in Musica"
    ISRC BER181013623
    INDEX 01 00:00:00
FILE "03 - Ut per te omnes celitus , Ingens alumnus Padue.wav" WAVE
  TRACK 03 AUDIO
    TITLE "Ut per te omnes celitus / Ingens alumnus Padue"
    PERFORMER "Diabolus in Musica"
    ISRC BER181013624
    INDEX 01 00:00:00
FILE "04 - Gloria no. 3.wav" WAVE
  TRACK 04 AUDIO
    TITLE "Gloria no. 3"
    PERFORMER "Diabolus in Musica"
    ISRC BER181013625
    INDEX 01 00:00:00
FILE "05 - Credo no. 4.wav" WAVE
  TRACK 05 AUDIO
    TITLE "Credo no. 4"
    PERFORMER "Diabolus in Musica"
    ISRC BER181013626
    INDEX 01 00:00:00
FILE "06 - Gloria spiritus et alme no. 6.wav" WAVE
  TRACK 06 AUDIO
    TITLE "Gloria spiritus et alme no. 6"
    PERFORMER "Diabolus in Musica"
    ISRC BER181013627
    INDEX 01 00:00:00
FILE "07 - Venecie, mundi splendor , Michael qui Stena domus.wav" WAVE
  TRACK 07 AUDIO
    TITLE "Venecie, mundi splendor / Michael qui Stena domus"
    PERFORMER "Diabolus in Musica"
    ISRC BER181013628
    INDEX 01 00:00:00
FILE "08 - Gloria suscipe trinitas.wav" WAVE
  TRACK 08 AUDIO
    TITLE "Gloria suscipe trinitas"
    PERFORMER "Diabolus in Musica"
    ISRC BER181013629
    INDEX 01 00:00:00
FILE "09 - O beatum incendium.wav" WAVE
  TRACK 09 AUDIO
    TITLE "O beatum incendium"
    PERFORMER "Diabolus in Musica"
    ISRC BER181013630
    INDEX 01 00:00:00
FILE "10 - O felix templum jubila.wav" WAVE
  TRACK 10 AUDIO
    TITLE "O felix templum jubila"
    PERFORMER "Diabolus in Musica"
    ISRC BER181013631
    INDEX 01 00:00:00
FILE "11 - Gloria no. 9.wav" WAVE
  TRACK 11 AUDIO
    TITLE "Gloria no. 9"
    PERFORMER "Diabolus in Musica"
    ISRC BER181013632
    INDEX 01 00:00:00
FILE "12 - Doctorum principem , Melodia suavissima , Vir mitis.wav" WAVE
  TRACK 12 AUDIO
    TITLE "Doctorum principem / Melodia suavissima / Vir mitis"
    PERFORMER "Diabolus in Musica"
    ISRC BER181013633
    INDEX 01 00:00:00
FILE "13 - Gloria no. 1.wav" WAVE
  TRACK 13 AUDIO
    TITLE "Gloria no. 1"
    PERFORMER "Diabolus in Musica"
    ISRC BER181013634
    INDEX 01 00:00:00
FILE "14 - Credo no. 2.wav" WAVE
  TRACK 14 AUDIO
    TITLE "Credo no. 2"
    PERFORMER "Diabolus in Musica"
    ISRC BER181013635
    INDEX 01 00:00:00
FILE "15 - Albane, misse celitus , Albane doctor maxime.wav" WAVE
  TRACK 15 AUDIO
    TITLE "Albane, misse celitus / Albane doctor maxime"
    PERFORMER "Diabolus in Musica"
    ISRC BER181013636
    INDEX 01 00:00:00
FILE "16 - Gloria spiritus et alme no. 5.wav" WAVE
  TRACK 16 AUDIO
    TITLE "Gloria spiritus et alme no. 5"
    PERFORMER "Diabolus in Musica"
    ISRC BER181013637
    INDEX 01 00:00:00
FILE "17 - Credo no. 10.wav" WAVE
  TRACK 17 AUDIO
    TITLE "Credo no. 10"
    PERFORMER "Diabolus in Musica"
    ISRC BER181013638
    INDEX 01 00:00:00
FILE "18 - Gloria no. 8.wav" WAVE
  TRACK 18 AUDIO
    TITLE "Gloria no. 8"
    PERFORMER "Diabolus in Musica"
    ISRC BER181013639
    INDEX 01 00:00:00
FILE "19 - O Padua sidus preclarum.wav" WAVE
  TRACK 19 AUDIO
    TITLE "O Padua sidus preclarum"
    PERFORMER "Diabolus in Musica"
    ISRC BER181013640
    INDEX 01 00:00:00


Скачать торрент 671.1 МБ


Download
Для скачивания .torrent файлов необходима регистрация
Сайт не распространяет и не хранит электронные версии произведений, а лишь предоставляет доступ к создаваемому пользователями каталогу ссылок на торрент-файлы, которые содержат только списки хеш-сумм

Страница 1 из 1

Ответить на тему

   Похожие торренты   Торрент 




cron