Регистрация ·  Логин: Пароль: Запомнить   · Забыли пароль?




Ответить на тему
Статистика раздачи
Размер: 534.82 МБ | Зарегистрирован: 10 мар 2018, 13:23 | .torrent скачан: 0 раз(а)
Сидеров: [ 1  | 0 байт/сек ]   Личеров: [ 0  | 0 байт/сек ]   DHT: [ 1 / 0 ]
Автор Сообщение

Модератор
Аватара пользователя

Стаж: 6 лет
Сообщения: 7870
Молдова

Сообщение 10 мар 2018, 13:23 

[Цитировать]

Monteverdi: Madrigali guerrieri et amorosi (The Consort of Musicke - Anthony Rooley)

Жанр: Baroque
Год выпуска диска: 1999
Производитель диска: US/Virgin Classics
Аудио кодек: FLAC
Тип рипа: image+.cue
Битрейт аудио: lossless
Продолжительность: 77:46; 62:36
Трэклист:
CD1: Madrigali guerrieri
1. Altri canti d'amor: Sinfonia "Altri canti d'Amor, tenero Arciero"
2. Altri canti d'amor: 'Tu Chi tessuta han di Cesare alloro'
3. Hor che'l ciel: 'Hor ch'el ciel e la terra, e'l vento tace'
4. Hor che'l ciel: 'Cosi sol d,una chiara fonte viva'
5. Gira il nemico insidioso
6. Se vittorie si belle
7. Armato il cor
8. Ogni amante è guerrier: 'Ogni amante è guerrier, nel suo gran regno'
9. Ogni amante è guerrier: 'Io che nell'otio naqui e d'otio vissi'
10.Ogni amante è guerrier: 'Ma per ampio Egeo spieghi le vele'
11. Ardo, ardo, avvampo
12. Volgendo il ciel per l'immortal sentiero
13. Il Combattimento di Tancredi e Clorinda: 'Tancredi, che Clorinda un homo stima'
14. Il Combattimento di Tancredi e Clorinda: 'Non schivar, non parar, non pur ritrasi'
15. Il Combattimento di Tancredi e Clorinda: 'Tre volte il cavalier la donna stringe'
16. Il Combattimento di Tancredi e Clorinda: 'Torna l'ira nei cori. e li trasporta'
17. Il Combattimento di Tancredi e Clorinda: 'Amico, hai vinto: io ti perdon... perdona'
Отчет ЕАС:
Exact Audio Copy V0.99 prebeta 5 from 4. May 2009
Отчёт EAC об извлечении, выполненном 8. июня 2010, 21:04
The Consort of Musicke - Anthony Rooley / Monteverdi: Madrigali guerrieri et amorosi. Madrigali guerrieri
Дисковод: HL-DT-STDVDRAM GT30N Adapter: 0 ID: 1
Режим чтения : Достоверность
Использование точного потока : Да
Отключение кэша аудио : Да
Использование указателей C2 : Нет
Коррекция смещения при чтении : 667
Способность читать области Lead-in и Lead-out : Нет
Заполнение пропущенных сэмплов тишиной : Да
Удаление блоков с тишиной в начале и конце : Нет
При вычислениях CRC использовались нулевые сэмплы : Да
Интерфейс : Встроенный Win32-интерфейс для Win NT/2000
Выходной формат : Пользовательский кодировщик
Выбранный битрейт : 768 kBit/s
Качество : Высокий
Добавление ID3-тэга : Нет
Утилита сжатия : C:\Program Files (x86)\Exact Audio Copy\FLAC\FLAC.EXE
Дополнительные параметры : -8 -V %s
TOC извлечённого CD
Трек | Старт | Длительность | Начальный сектор | Конечный сектор
---------------------------------------------------------------------
1 | 0:00.00 | 5:48.16 | 0 | 26115
2 | 5:48.16 | 4:28.09 | 26116 | 46224
3 | 10:16.25 | 4:49.36 | 46225 | 67935
4 | 15:05.61 | 4:11.69 | 67936 | 86829
5 | 19:17.55 | 5:41.21 | 86830 | 112425
6 | 24:59.01 | 3:00.60 | 112426 | 125985
7 | 27:59.61 | 3:00.24 | 125986 | 139509
8 | 31:00.10 | 5:36.27 | 139510 | 164736
9 | 36:36.37 | 7:38.03 | 164737 | 199089
10 | 44:14.40 | 2:02.65 | 199090 | 208304
11 | 46:17.30 | 4:29.43 | 208305 | 228522
12 | 50:46.73 | 5:12.38 | 228523 | 251960
13 | 55:59.36 | 5:42.25 | 251961 | 277635
14 | 61:41.61 | 1:29.30 | 277636 | 284340
15 | 63:11.16 | 5:52.49 | 284341 | 310789
16 | 69:03.65 | 3:21.73 | 310790 | 325937
17 | 72:25.63 | 5:18.66 | 325938 | 349853
Характеристики диапазона извлечения и сообщения об ошибках
Выбранный диапазон
Имя файла C:\Users\User\Music\Monteverdi\The Consort of Musicke - Anthony Rooley - Monteverdi Madrigali guerrieri et amorosi. Madrigali guerrieri.wav
Пиковый уровень 72.7 %
Качество диапазона 100.0 %
CRC копии B2B7E006
Копирование... OK
Ошибок не произошло
Конец отчёта
CD2: Madrigali amorosi
1. Altri canti di Marte: 'Altri canti di Marte, e di sua schiera'
2. Altri canti di Marte: 'Due begli occhi fur l'armi, onde traffitta'
3. Mentre vaga Angioletta
4. Ardo e scoprir
5. O sia tranquillo il mar
6. Ninfa, che scalza il piede
7. Dolcissimo uscignolo
8. Chi vol haver felice
9. Lamento della ninfa: 'Non havea Febo ancora'
10.Lamento della ninfa: 'Amor, dicea, il ciel'
11.Perchè t'en fuggi, o Fillide
12.Non partir ritrosetta
13.Su su su pastorelli vezzossi
14.Vago augelletto
Отчет ЕАС:
Exact Audio Copy V0.99 prebeta 5 from 4. May 2009
Отчёт EAC об извлечении, выполненном 8. июня 2010, 16:54
The consort of Musicke / Monteverdi: Madrigali guerrieri et amorosi. Madrigali amorosi
Дисковод: HL-DT-STDVDRAM GT30N Adapter: 0 ID: 1
Режим чтения : Достоверность
Использование точного потока : Да
Отключение кэша аудио : Да
Использование указателей C2 : Нет
Коррекция смещения при чтении : 667
Способность читать области Lead-in и Lead-out : Нет
Заполнение пропущенных сэмплов тишиной : Да
Удаление блоков с тишиной в начале и конце : Нет
При вычислениях CRC использовались нулевые сэмплы : Да
Интерфейс : Встроенный Win32-интерфейс для Win NT/2000
Выходной формат : Пользовательский кодировщик
Выбранный битрейт : 768 kBit/s
Качество : Высокий
Добавление ID3-тэга : Нет
Утилита сжатия : C:\Program Files (x86)\Exact Audio Copy\FLAC\FLAC.EXE
Дополнительные параметры : -8 -V %s
TOC извлечённого CD
Трек | Старт | Длительность | Начальный сектор | Конечный сектор
---------------------------------------------------------------------
1 | 0:00.00 | 4:06.74 | 0 | 18523
2 | 4:06.74 | 4:20.20 | 18524 | 38043
3 | 8:27.19 | 9:45.14 | 38044 | 81932
4 | 18:12.33 | 3:46.67 | 81933 | 98949
5 | 21:59.25 | 4:42.53 | 98950 | 120152
6 | 26:42.03 | 4:57.49 | 120153 | 142476
7 | 31:39.52 | 3:51.05 | 142477 | 159806
8 | 35:30.57 | 2:07.18 | 159807 | 169349
9 | 37:38.00 | 1:21.53 | 169350 | 175477
10 | 38:59.53 | 5:10.07 | 175478 | 198734
11 | 44:09.60 | 5:45.61 | 198735 | 224670
12 | 49:55.46 | 4:26.11 | 224671 | 244631
13 | 54:21.57 | 2:40.25 | 244632 | 256656
14 | 57:02.07 | 5:32.05 | 256657 | 281561
Характеристики диапазона извлечения и сообщения об ошибках
Выбранный диапазон
Имя файла C:\Users\User\Music\Monteverdi\The consort of Musicke - Monteverdi Madrigali guerrieri et amorosi. Madrigali amorosi.wav
Пиковый уровень 75.1 %
Качество диапазона 99.9 %
CRC копии 3AFDD0C1
Копирование... OK
Ошибок не произошло
Конец отчёта
Доп. информация:
Emma Kirkby (soprano)
Evelyn Tubb (soprano)
Mary Nichols (alto)
Kristine Szulik (alto)
Paul Agnew (tenor)
Andrew King (tenor)
Richard Edgar-Wilson (tenor)
Alan Ewing (bass)
Allan Parkes (bass)
& The Consort of Musicke
Anthony Rooley (director)


Скачать торрент 534.82 МБ


Download
Для скачивания .torrent файлов необходима регистрация
Сайт не распространяет и не хранит электронные версии произведений, а лишь предоставляет доступ к создаваемому пользователями каталогу ссылок на торрент-файлы, которые содержат только списки хеш-сумм

Страница 1 из 1

Ответить на тему

   Похожие торренты   Торрент 




cron