Регистрация ·  Логин: Пароль: Запомнить   · Забыли пароль?




Ответить на тему
Статистика раздачи
Размер: 259 МБ | Зарегистрирован: 10 мар 2018, 13:23 | .torrent скачан: 0 раз(а)
Сидеров: [ 0  | 0 байт/сек ]   Личеров: [ 0  | 0 байт/сек ]   DHT: [ 0 / 0 ]
Автор Сообщение

Модератор
Аватара пользователя

Стаж: 6 лет
Сообщения: 7870
Молдова

Сообщение 10 мар 2018, 13:23 

[Цитировать]

Huelgas-Ensemble / Paul van Nevel - Le Chant de Virgile

Жанр: Renaissance
Страна-производитель диска: Germany
Год издания диска: 2002
Издатель (лейбл): Harmonia Mundi
Номер по каталогу: HMC 901739
Дата записи: 2001
Аудиокодек: APE
Тип рипа: image+.cue
Битрейт аудио: lossless
Продолжительность: 01:05:32
Источник: скачано с avaxhome
Наличие сканов в содержимом раздачи: нет
Треклист:
01. Josquin Desprez - Dulces Exuviae 3:42
02. Jehan Mouton - Dulces Exuviae 3:19
03. Mabriano de Orto- Dulces Exuviae 3:13
04. Ludwig Senfl - Mollis inertia cum tantam diffuderit imis 4:11
05. Ludwig Senfl - Non usitata nec tenui ferar 4:14
06. Ludwig Senfl - Petti, nihil me sicut antea juvat 5:54
07. Adriaan Willaert - O socii neque enim 3:44
08. Cipriano de Rore - O socii neque enim 4:29
09. Richard de Renvoisy - Vulcan fondz dedans ton four 1:59
10. Anonyme francais - Lamech, Judith et Rachel 4:46
11. Cipriano de Rore - Donec gratus eram tibi 5:25
12. Dominique Phinot - Vivons, m'amye at l'amour poursuyvons 2:53
13. Jakob Vaet - Dulces Exuviae 4:36
14. Theodorius Gerarde - Dulces Exuviae 7:32
15. Roland de Lassus - Dulces Exuviae 5:29
Исполнители:
Huelgas-Ensemble / Paul van Nevel
Код:
Exact Audio Copy V1.0 beta 3 from 29. August 2011
EAC extraction logfile from 2. July 2012, 14:40
Huelgas Ensemble / Le Chant de Virgile
Used drive  : PIONEER BD-RW   BDR-206   Adapter: 2  ID: 3
Read mode               : Secure
Utilize accurate stream : Yes
Defeat audio cache      : Yes
Make use of C2 pointers : No
Read offset correction                      : 667
Overread into Lead-In and Lead-Out          : No
Fill up missing offset samples with silence : Yes
Delete leading and trailing silent blocks   : No
Null samples used in CRC calculations       : Yes
Used interface                              : Native Win32 interface for Win NT & 2000
Used output format              : User Defined Encoder
Selected bitrate                : 896 kBit/s
Quality                         : High
Add ID3 tag                     : No
Command line compressor         : C:\Program Files\FLAC\flac.exe
Additional command line options : -5 -T "Artist=%artist%" -T "Title=%title%" -T "Album=%albumtitle%" -T "Date=%year%" -T "Tracknumber=%tracknr%" -T "Genre=%genre%" %source% -o %dest%
TOC of the extracted CD
     Track |   Start  |  Length  | Start sector | End sector
    ---------------------------------------------------------
        1  |  0:00.00 |  3:42.12 |         0    |    16661
        2  |  3:42.12 |  3:19.60 |     16662    |    31646
        3  |  7:01.72 |  3:13.00 |     31647    |    46121
        4  | 10:14.72 |  4:11.58 |     46122    |    65004
        5  | 14:26.55 |  4:14.02 |     65005    |    84056
        6  | 18:40.57 |  5:54.25 |     84057    |   110631
        7  | 24:35.07 |  3:44.58 |    110632    |   127489
        8  | 28:19.65 |  4:29.10 |    127490    |   147674
        9  | 32:49.00 |  1:59.50 |    147675    |   156649
       10  | 34:48.50 |  4:46.10 |    156650    |   178109
       11  | 39:34.60 |  5:25.47 |    178110    |   202531
       12  | 45:00.32 |  2:53.65 |    202532    |   215571
       13  | 47:54.22 |  4:36.28 |    215572    |   236299
       14  | 52:30.50 |  7:32.50 |    236300    |   270249
       15  | 60:03.25 |  5:29.02 |    270250    |   294926
Range status and errors
Selected range
     Filename I:\=== VINYL RIPS ===\=== EAC===\X FRESH RIP\Huelgas Ensemble - Le Chant de Virgile.wav
     Peak level 90.0 %
     Extraction speed 7.9 X
     Range quality 100.0 %
     Test CRC 8AA79CC7
     Copy CRC 8AA79CC7
     Copy OK
No errors occurred
AccurateRip summary
Track  1  accurately ripped (confidence 2)  [E1B6B20E]  (AR v1)
Track  2  accurately ripped (confidence 2)  [6D29642A]  (AR v1)
Track  3  accurately ripped (confidence 2)  [A588A714]  (AR v1)
Track  4  accurately ripped (confidence 2)  [F466779D]  (AR v1)
Track  5  accurately ripped (confidence 2)  [DDAA18A8]  (AR v1)
Track  6  accurately ripped (confidence 2)  [DC166FBF]  (AR v1)
Track  7  accurately ripped (confidence 2)  [5C82B3AB]  (AR v1)
Track  8  accurately ripped (confidence 2)  [6C7A86AF]  (AR v1)
Track  9  accurately ripped (confidence 2)  [5BB94868]  (AR v1)
Track 10  accurately ripped (confidence 2)  [888E5D4F]  (AR v1)
Track 11  accurately ripped (confidence 2)  [FC0B31D3]  (AR v1)
Track 12  accurately ripped (confidence 2)  [F12A8E27]  (AR v1)
Track 13  accurately ripped (confidence 2)  [5F612DC0]  (AR v1)
Track 14  accurately ripped (confidence 2)  [52E596A2]  (AR v1)
Track 15  accurately ripped (confidence 2)  [E9165F8B]  (AR v1)
All tracks accurately ripped
End of status report
---- CUETools DB Plugin V2.1.3
[CTDB TOCID: 2Zsx9u1IX0kIbcU4L5jFCc6eJvo-] found, Submit result: 2Zsx9u1IX0kIbcU4L5jFCc6eJvo- has been confirmed
[38634594] (1/1) Accurately ripped
==== Log checksum F0243F4B51CB697C63A8E65412C2C825CF81A7355699F9659B283D4372D6BF28 ====
Код:
AUDIOCHECKER v2.0 beta (build 457) - by Dester - [email protected]
~~~~~~~~~~~~~~~~~~~~~~~~~~~~~~~~~~
-=== DO NOT EDIT THIS FILE! ===-
Path: ...\Temp
1 -=- Huelgas Ensemble - Le Chant de Virgile.wav -=- CDDA (100%)
23774084
В этой раздаче нет лога ЕАС.


Скачать торрент 259 МБ


Download
Для скачивания .torrent файлов необходима регистрация
Сайт не распространяет и не хранит электронные версии произведений, а лишь предоставляет доступ к создаваемому пользователями каталогу ссылок на торрент-файлы, которые содержат только списки хеш-сумм

Страница 1 из 1

Ответить на тему

   Похожие торренты   Торрент