Регистрация ·  Логин: Пароль: Запомнить   · Забыли пароль?




Ответить на тему
Статистика раздачи
Размер: 248.96 МБ | Зарегистрирован: 10 мар 2018, 13:23 | .torrent скачан: 0 раз(а)
Сидеров: [ 0  | 0 байт/сек ]   Личеров: [ 0  | 0 байт/сек ]   DHT: [ 0 / 0 ]
Автор Сообщение

Модератор
Аватара пользователя

Стаж: 6 лет
Сообщения: 7870
Молдова

Сообщение 10 мар 2018, 13:23 

[Цитировать]

Johann Gottlieb Naumann (1741 - 1801) - Psalm 96 & 103

Жанр: Classical/Vocal
Год выпуска диска: 1999
Производитель диска: Germany/Ars Musici
Аудио кодек: APE
Тип рипа: image+.cue
Битрейт аудио: lossless
Продолжительность: 54:09
Исполнители
Bettina Eismann (soprano)
Elisabeth Wilke (alto)
Werner Gura (tenor)
Egbert Junghanns (bass)
Kornerscher Sing-verein Dresden, Dresdner Instrumental-Concert; Peter Kopp
01. Ouvertuere zur Oper "Gustav Wasa" 04:58
02. Psalm96 Chor und Soli - Singet dem Herrn ein neues Lied 03:15
03. Psalm96 Arie Sopran - Es stehet herrlich und praechtig vor ihm 07:22
04. Psalm96 Arie Tenor - Saget unter den Heiden 02:51
05. Psalm96 Duett Sopran Alt - Himmel freue sich 04:15
06. Kantate "Kommt herzu" fuer Herrnhuter Bruedergemeinde 04:40
07. Psalm103 Sopran und Chor - Lobe den Herrn meine Seele 04:11
08. Psalm103 Chor - Der Herr schaffet Gerechtigkeit 02:47
09. Psalm103 Arie Tenor - Barmherzig und gnaedig ist der Herr 03:57
10. Psalm103 Chor - Denn so hoch der Himmel ueber der Erden ist 01:25
11. Psalm103 Quartett - Wie sich ein Vater ueber Kinder erbarmet 01:49
12. Psalm103 Arie Sopran - Ein Mensch ist in seinem Leben wie Gras 02:54
13. Psalm103 Chor - Die Gnade aber des Herrn waehret von Ewigkeit 02:11
14. Psalm103 Arie Bass - Der Herr hat seinen Stuhl im Himmel bereitet 02:17
15. Psalm103 Chor - Lobet den Herrn ihr seine Engel 05:10
Exact Audio Copy V0.99 prebeta 4 from 23. January 2008
Отчёт EAC об извлечении, выполненном 22. декабря 2009, 0:15
Kornerscher Sing-Verein Dresden, Peter Kopp / Johann Gottlieb Naumann - Psalm 96 & 103
Дисковод: Optiarc DVD RW AD-7200S Adapter: 0 ID: 0
Режим чтения : Достоверность
Использование точного потока : Да
Отключение кэша аудио : Да
Использование указателей C2 : Нет
Коррекция смещения при чтении : 48
Способность читать области Lead-in и Lead-out : Нет
Заполнение пропущенных сэмплов тишиной : Да
Удаление блоков с тишиной в начале и конце : Нет
При вычислениях CRC использовались нулевые сэмплы : Да
Интерфейс : Установленный внешний ASPI-интерфейс
Выходной формат : Внутренние WAV-операции
Формат сэмплов : 44.100 Гц; 16 бит; стерео
Смещение при сжатии : 0
TOC извлечённого CD
Трек | Старт | Длительность | Начальный сектор | Конечный сектор
---------------------------------------------------------------------
1 | 0:00.00 | 4:58.21 | 0 | 22370
2 | 4:58.21 | 3:15.52 | 22371 | 37047
3 | 8:13.73 | 7:22.53 | 37048 | 70250
4 | 15:36.51 | 2:51.00 | 70251 | 83075
5 | 18:27.51 | 4:15.35 | 83076 | 102235
6 | 22:43.11 | 4:40.27 | 102236 | 123262
7 | 27:23.38 | 4:11.07 | 123263 | 142094
8 | 31:34.45 | 2:47.67 | 142095 | 154686
9 | 34:22.37 | 3:57.15 | 154687 | 172476
10 | 38:19.52 | 1:25.18 | 172477 | 178869
11 | 39:44.70 | 1:49.00 | 178870 | 187044
12 | 41:33.70 | 2:54.12 | 187045 | 200106
13 | 44:28.07 | 2:11.43 | 200107 | 209974
14 | 46:39.50 | 2:17.40 | 209975 | 220289
15 | 48:57.15 | 5:10.26 | 220290 | 243565
Характеристики диапазона извлечения и сообщения об ошибках
Выбранный диапазон
Имя файла E:\RIPPING\Johann Gottlieb Naumann - Psalm 96 & 103 (Kornerscher Sing-Verein Dresden, Peter Kopp).wav
Пиковый уровень 94.7 %
Качество диапазона 100.0 %
CRC теста A17476C6
CRC копии A17476C6
Копирование... OK
Ошибок не произошло
AccurateRip: сводка
Трек 1 точное извлечение (доверие 1) [5982629C]
Трек 2 точное извлечение (доверие 1) [6B1BBE22]
Трек 3 точное извлечение (доверие 1) [6AF1A0E5]
Трек 4 точное извлечение (доверие 1) [CFE7F980]
Трек 5 точное извлечение (доверие 1) [CFD292D8]
Трек 6 точное извлечение (доверие 1) [7E135FBF]
Трек 7 точное извлечение (доверие 1) [7DCCFD43]
Трек 8 точное извлечение (доверие 1) [BCE7B241]
Трек 9 точное извлечение (доверие 1) [769EA889]
Трек 10 точное извлечение (доверие 1) [EC15DF08]
Трек 11 точное извлечение (доверие 1) [7E6717A7]
Трек 12 точное извлечение (доверие 1) [89FC1233]
Трек 13 точное извлечение (доверие 1) [697BFD6D]
Трек 14 точное извлечение (доверие 1) [0F793651]
Трек 15 точное извлечение (доверие 1) [87DBC20E]
Все треки извлечены точно
Конец отчёта


Скачать торрент 248.96 МБ


Download
Для скачивания .torrent файлов необходима регистрация
Сайт не распространяет и не хранит электронные версии произведений, а лишь предоставляет доступ к создаваемому пользователями каталогу ссылок на торрент-файлы, которые содержат только списки хеш-сумм

Страница 1 из 1

Ответить на тему

   Похожие торренты   Торрент