Регистрация ·  Логин: Пароль: Запомнить   · Забыли пароль?




Ответить на тему
Статистика раздачи
Размер: 225.38 МБ | Зарегистрирован: 10 мар 2018, 13:23 | .torrent скачан: 0 раз(а)
Сидеров: [ 0  | 0 байт/сек ]   Личеров: [ 0  | 0 байт/сек ]   DHT: [ 0 / 0 ]
Автор Сообщение

Модератор
Аватара пользователя

Стаж: 6 лет
Сообщения: 7870
Молдова

Сообщение 10 мар 2018, 13:23 

[Цитировать]

Donizetti - songs (O'Neill, Surgenor)/ Доницетти - вокальные произведения

Жанр: Vocal
Год выпуска диска: 2006
Производитель диска: Naxos
Аудио кодек: FLAC
Тип рипа: image+.cue
Битрейт: lossless
Продолжительность: 01:07:04
Трэклист:
1. Amore e morte
2. Ah, rammenta, o bella Irene
3. Una lagrima
4. La mere et l’enfant
5. Amor marinaro
6. E morta
7. Su l’onda tremola
8. L’amor funesto
9. Giuro d’amore
10. Il sospiro
11. La ninna-nanna
12. Le crepuscule
13. La lontananza
14. L’amor mio
15. La sultana
16. Il pescatore
Доп. информация: Исполнители: Dennis O'Neill (тенор), Ingrid Surgenor (фортепьяно)
Код:
Exact Audio Copy V0.99 prebeta 5 from 4. May 2009
EAC extraction logfile from 30. January 2010, 23:50
Gaetano Donizetti - Dennis O'Neill, Ingrid Surgenor / Songs
Used drive  : Optiarc DVD RW AD-7243S   Adapter: 3  ID: 1
Read mode               : Secure
Utilize accurate stream : Yes
Defeat audio cache      : Yes
Make use of C2 pointers : No
Read offset correction                      : 48
Overread into Lead-In and Lead-Out          : No
Fill up missing offset samples with silence : Yes
Delete leading and trailing silent blocks   : No
Null samples used in CRC calculations       : Yes
Used interface                              : Native Win32 interface for Win NT & 2000
Used output format              : User Defined Encoder
Selected bitrate                : 128 kBit/s
Quality                         : High
Add ID3 tag                     : No
Command line compressor         : C:\Program Files (x86)\Exact Audio Copy\Flac\flac.exe
Additional command line options : -8 -V %s
TOC of the extracted CD
     Track |   Start  |  Length  | Start sector | End sector
    ---------------------------------------------------------
        1  |  0:00.00 |  2:27.39 |         0    |    11063
        2  |  2:27.39 |  4:34.28 |     11064    |    31641
        3  |  7:01.67 |  3:52.16 |     31642    |    49057
        4  | 10:54.08 |  5:14.39 |     49058    |    72646
        5  | 16:08.47 |  2:01.70 |     72647    |    81791
        6  | 18:10.42 |  5:26.36 |     81792    |   106277
        7  | 23:37.03 |  2:56.66 |    106278    |   119543
        8  | 26:33.69 |  4:57.36 |    119544    |   141854
        9  | 31:31.30 |  2:42.57 |    141855    |   154061
       10  | 34:14.12 |  3:18.06 |    154062    |   168917
       11  | 37:32.18 |  7:31.13 |    168918    |   202755
       12  | 45:03.31 |  2:57.60 |    202756    |   216090
       13  | 48:01.16 |  1:59.51 |    216091    |   225066
       14  | 50:00.67 |  2:35.23 |    225067    |   236714
       15  | 52:36.15 |  5:54.40 |    236715    |   263304
       16  | 58:30.55 |  8:31.20 |    263305    |   301649
Range status and errors
Selected range
     Filename D:\MyWorks\S_GD\Gaetano Donizetti - Dennis O'Neill, Ingrid Surgenor - Songs.wav
     Peak level 96.0 %
     Range quality 100.0 %
     Test CRC C4ABE343
     Copy CRC C4ABE343
     Copy OK
No errors occurred
AccurateRip summary
Track  1  not present in database
Track  2  not present in database
Track  3  not present in database
Track  4  not present in database
Track  5  not present in database
Track  6  not present in database
Track  7  not present in database
Track  8  not present in database
Track  9  not present in database
Track 10  not present in database
Track 11  not present in database
Track 12  not present in database
Track 13  not present in database
Track 14  not present in database
Track 15  not present in database
Track 16  not present in database
None of the tracks are present in the AccurateRip database
End of status report
Благодарю timtima за предоставленные файлы


Скачать торрент 225.38 МБ


Download
Для скачивания .torrent файлов необходима регистрация
Сайт не распространяет и не хранит электронные версии произведений, а лишь предоставляет доступ к создаваемому пользователями каталогу ссылок на торрент-файлы, которые содержат только списки хеш-сумм

Страница 1 из 1

Ответить на тему

   Похожие торренты   Торрент 




cron