Регистрация ·  Логин: Пароль: Запомнить   · Забыли пароль?




Ответить на тему
Статистика раздачи
Размер: 177.58 МБ | Зарегистрирован: 10 мар 2018, 13:24 | .torrent скачан: 0 раз(а)
Сидеров: [ 0  | 0 байт/сек ]   Личеров: [ 0  | 0 байт/сек ]   DHT: [ 0 / 0 ]
Автор Сообщение

Модератор
Аватара пользователя

Стаж: 6 лет
Сообщения: 7870
Молдова

Сообщение 10 мар 2018, 13:24 

[Цитировать]

Luigi Nono - Composizione № 1, Der rote Mantel, ballett

Жанр: Avant-garde, Modern Classic, Contemporary
Страна-производитель диска: Germany
Год издания диска: 2004
Издатель (лейбл): Wergo
Номер по каталогу: WER 6667-2
Дата записи: 2000
Аудиокодек: APE
Тип рипа: image+.cue
Битрейт аудио: lossless
Продолжительность: 51:06
Источник: ooliver
Наличие сканов в содержимом раздачи: да
Треклист:
01 Composizione per orchestra n. 1 (1951) 14:06
Der rote Mantel, balletto, per soprano, baritono, coro e orchestra (1954) (19 tracks, 36:51)
02 1 Akt: I Introduzione 01:34
03 1 Akt: II Perlimplin erscheint 00:59
04 1 Akt: III Lied der Belisa 06:29
05 1 Akt: IV Wirrer Liebestanz 03:13
06 1 Akt: V Tanz der Enttäuschung Belisas 02:01
07 2 Akt: I Nacht - Tanz der Liebhaber 01:02
08 2 Akt: II a) ein Zentaurus 01:46
09 2 Akt: III b) ein Jüngling 02:05
10 2 Akt: IV c) ein Akrobat 01:16
11 2 Akt: V d) ein Mörder 01:47
12 2 Akt: VI Perlimplins Aufwachen und Lied Perlimplins 03:03
13 3 Akt: I Perlimplin schreibt einen Brief 01:33
14 3 Akt: II Der rote Mantel erscheint zum ersten Mal 00:35
15 3 Akt: III Serenade 01:36
16 3 Akt: IV Der rote Mantel erscheint zum zweiten Mal 00:40
17 3 Akt: V Ein Verfolgungstanz 01:31
18 3 Akt: VI Belisas Leid und Liebe zu dem roten Mantel 01:22
19 3 Akt: VII Todestanz des roten Mantels 02:00
20 3 Akt: VIII Liebesgesang der Belisa 02:19
First Recording: 19-23 Juni 2000, Grosser Sendesaal des RBB
Исполнители:
Baritone Vocals - Jörg Gottschick (tracks: 2 to 20)
Choir - RIAS Kammerchor* (tracks: 2 to 20)
Conductor - Peter Hirsch (2)
Orchestra - Deutsches Symphonie-Orchester Berlin
Soprano Vocals - Angelika Luz (tracks: 2 to 20)
Код:
Exact Audio Copy V0.99 prebeta 4 from 23. January 2008
EAC extraction logfile from 15. April 2009, 11:44
Luigi Nono / der rote mantel
Used drive  : HL-DT-STDVDRAM GSA-H44N   Adapter: 3  ID: 0
Read mode               : Secure
Utilize accurate stream : Yes
Defeat audio cache      : No
Make use of C2 pointers : No
Read offset correction                      : 667
Overread into Lead-In and Lead-Out          : No
Fill up missing offset samples with silence : Yes
Delete leading and trailing silent blocks   : No
Null samples used in CRC calculations       : Yes
Used interface                              : Installed external ASPI interface
Used output format : Internal WAV Routines
Sample format      : 44.100 Hz; 16 Bit; Stereo
TOC of the extracted CD
     Track |   Start  |  Length  | Start sector | End sector
    ---------------------------------------------------------
        1  |  0:00.00 | 14:06.00 |         0    |    63449
        2  | 14:06.00 |  1:34.46 |     63450    |    70545
        3  | 15:40.46 |  0:59.41 |     70546    |    75011
        4  | 16:40.12 |  6:29.23 |     75012    |   104209
        5  | 23:09.35 |  3:13.32 |    104210    |   118716
        6  | 26:22.67 |  2:01.05 |    118717    |   127796
        7  | 28:23.72 |  1:02.40 |    127797    |   132486
        8  | 29:26.37 |  1:46.45 |    132487    |   140481
        9  | 31:13.07 |  2:05.18 |    140482    |   149874
       10  | 33:18.25 |  1:16.65 |    149875    |   155639
       11  | 34:35.15 |  1:47.07 |    155640    |   163671
       12  | 36:22.22 |  3:03.44 |    163672    |   177440
       13  | 39:25.66 |  1:33.51 |    177441    |   184466
       14  | 40:59.42 |  0:35.53 |    184467    |   187144
       15  | 41:35.20 |  1:36.40 |    187145    |   194384
       16  | 43:11.60 |  0:40.26 |    194385    |   197410
       17  | 43:52.11 |  1:31.37 |    197411    |   204272
       18  | 45:23.48 |  1:22.73 |    204273    |   210495
       19  | 46:46.46 |  2:00.54 |    210496    |   219549
       20  | 48:47.25 |  2:19.15 |    219550    |   229989
Range status and errors
Selected range
     Filename I:\ Torrent\Music\ My uploads\07-08-53 Nono\53 Nono - der rote mantel\Luigi Nono - der rote mantel.wav
     Peak level 99.9 %
     Range quality 100.0 %
     Copy CRC 9029EED1
     Copy OK
No errors occurred
AccurateRip summary
Track  1  not present in database
Track  2  not present in database
Track  3  not present in database
Track  4  not present in database
Track  5  not present in database
Track  6  not present in database
Track  7  not present in database
Track  8  not present in database
Track  9  not present in database
Track 10  not present in database
Track 11  not present in database
Track 12  not present in database
Track 13  not present in database
Track 14  not present in database
Track 15  not present in database
Track 16  not present in database
Track 17  not present in database
Track 18  not present in database
Track 19  not present in database
Track 20  not present in database
None of the tracks are present in the AccurateRip database
End of status report
Код:
REM DISCID 310BFA14
REM COMMENT "ExactAudioCopy v0.99pb4"
PERFORMER "Luigi Nono"
TITLE "der rote mantel"
FILE "Luigi Nono - der rote mantel.wav" WAVE
  TRACK 01 AUDIO
    TITLE "Composizione per orchestra #1"
    PERFORMER "Luigi Nono"
    INDEX 01 00:00:00
  TRACK 02 AUDIO
    TITLE "Der rote Mantel - 1 Akt: I"
    PERFORMER "Luigi Nono"
    INDEX 00 13:55:14
    INDEX 01 14:06:00
  TRACK 03 AUDIO
    TITLE "Der rote Mantel - 1 Akt: II"
    PERFORMER "Luigi Nono"
    INDEX 00 15:40:45
    INDEX 01 15:40:46
  TRACK 04 AUDIO
    TITLE "Der rote Mantel - 1 Akt: III"
    PERFORMER "Luigi Nono"
    INDEX 00 16:40:11
    INDEX 01 16:40:12
  TRACK 05 AUDIO
    TITLE "Der rote Mantel - 1 Akt: IV"
    PERFORMER "Luigi Nono"
    INDEX 00 23:09:34
    INDEX 01 23:09:35
  TRACK 06 AUDIO
    TITLE "Der rote Mantel - 1 Akt: V"
    PERFORMER "Luigi Nono"
    INDEX 00 26:22:66
    INDEX 01 26:22:67
  TRACK 07 AUDIO
    TITLE "Der rote Mantel - 2 Akt: I"
    PERFORMER "Luigi Nono"
    INDEX 00 28:23:71
    INDEX 01 28:23:72
  TRACK 08 AUDIO
    TITLE "Der rote Mantel - 2 Akt: II"
    PERFORMER "Luigi Nono"
    INDEX 00 29:26:36
    INDEX 01 29:26:37
  TRACK 09 AUDIO
    TITLE "Der rote Mantel - 2 Akt: III"
    PERFORMER "Luigi Nono"
    INDEX 00 31:13:06
    INDEX 01 31:13:07
  TRACK 10 AUDIO
    TITLE "Der rote Mantel - 2 Akt: IV"
    PERFORMER "Luigi Nono"
    INDEX 00 33:18:24
    INDEX 01 33:18:25
  TRACK 11 AUDIO
    TITLE "Der rote Mantel - 2 Akt: V"
    PERFORMER "Luigi Nono"
    INDEX 00 34:35:14
    INDEX 01 34:35:15
  TRACK 12 AUDIO
    TITLE "Der rote Mantel - 2 Akt: VI"
    PERFORMER "Luigi Nono"
    INDEX 00 36:22:21
    INDEX 01 36:22:22
  TRACK 13 AUDIO
    TITLE "Der rote Mantel - 3 Akt: I"
    PERFORMER "Luigi Nono"
    INDEX 00 39:25:65
    INDEX 01 39:25:66
  TRACK 14 AUDIO
    TITLE "Der rote Mantel - 3 Akt: II"
    PERFORMER "Luigi Nono"
    INDEX 00 40:59:41
    INDEX 01 40:59:42
  TRACK 15 AUDIO
    TITLE "Der rote Mantel - 3 Akt: III"
    PERFORMER "Luigi Nono"
    INDEX 00 41:35:19
    INDEX 01 41:35:20
  TRACK 16 AUDIO
    TITLE "Der rote Mantel - 3 Akt: IV"
    PERFORMER "Luigi Nono"
    INDEX 00 43:11:59
    INDEX 01 43:11:60
  TRACK 17 AUDIO
    TITLE "Der rote Mantel - 3 Akt: V"
    PERFORMER "Luigi Nono"
    INDEX 00 43:52:10
    INDEX 01 43:52:11
  TRACK 18 AUDIO
    TITLE "Der rote Mantel - 3 Akt: VI"
    PERFORMER "Luigi Nono"
    INDEX 00 45:23:47
    INDEX 01 45:23:48
  TRACK 19 AUDIO
    TITLE "Der rote Mantel - 3 Akt: VII"
    PERFORMER "Luigi Nono"
    INDEX 00 46:46:45
    INDEX 01 46:46:46
  TRACK 20 AUDIO
    TITLE "Der rote Mantel - 3 Akt: VIII"
    PERFORMER "Luigi Nono"
    INDEX 00 48:47:24
    INDEX 01 48:47:25


Скачать торрент 177.58 МБ


Download
Для скачивания .torrent файлов необходима регистрация
Сайт не распространяет и не хранит электронные версии произведений, а лишь предоставляет доступ к создаваемому пользователями каталогу ссылок на торрент-файлы, которые содержат только списки хеш-сумм

Страница 1 из 1

Ответить на тему

   Похожие торренты   Торрент