Регистрация ·  Логин: Пароль: Запомнить   · Забыли пароль?




Ответить на тему
Статистика раздачи
Размер: 208.01 МБ | Зарегистрирован: 10 мар 2018, 13:24 | .torrent скачан: 0 раз(а)
Сидеров: [ 0  | 0 байт/сек ]   Личеров: [ 0  | 0 байт/сек ]   DHT: [ 0 / 0 ]
Автор Сообщение

Модератор
Аватара пользователя

Стаж: 6 лет
Сообщения: 7870
Молдова

Сообщение 10 мар 2018, 13:24 

[Цитировать]

Jose Carreras - "The Golden Voice"(ForeverGold)

Жанр: Vocal
Год выпуска диска: 2005
Производитель диска: Ирландия
Аудио кодек: APE
Тип рипа: image+.cue
Битрейт аудио: lossless
Трэклист:
1. Verdi (from Luisa Miller) 10.02
Oh! Fede Negar Potessi...
Quando Le Sere Al Placido...
L'Ara, O L'Avello Aprest Ami
2. Verdi (from Requiem) Ingemisco 3.43
3. Verdi (from Requiem) La Donna E Mobile 2.12
4. Verdi (from Requiem) 7.09
Ella Mi Fu Rapita Parmi
Veder Le Lagrime
Possente Armor Mi Chiama
5. Verdi (from La Traviata) Scena Della Borsa (with Renata Scotto) 3.40
6. Verdi (from La Traviata) De Miei Bollenti Spiriti 4.00
7. Verdi (from Un Bollo In Maschera) Di Tu Su Fidele 3.29
8. Verdi (from Un Bollo In Maschera) La Rivedra Nell'Estasi 2.28
9. Puccini (from Madama Butterfly) Addio Foirito Asil 1.55
10.Puccini (from Madama Butterfly) Dovunque Al Mondo 6.20
11.Puccini (from La Boheme) Marcello, Finalmente 5.25
12.Puccini (from La Boheme) Che Gelida Manina 5.33
Exact Audio Copy V0.99 prebeta 5 from 4. May 2009
Отчёт EAC об извлечении, выполненном 28. ноября 2009, 0:26
Jose Carreras / For Ever Gold
Дисковод: SlimtypeDVD A DS8A1P Adapter: 1 ID: 0
Режим чтения : Достоверность
Использование точного потока : Да
Отключение кэша аудио : Да
Использование указателей C2 : Нет
Коррекция смещения при чтении : 594
Способность читать области Lead-in и Lead-out : Нет
Заполнение пропущенных сэмплов тишиной : Да
Удаление блоков с тишиной в начале и конце : Нет
При вычислениях CRC использовались нулевые сэмплы : Да
Интерфейс : Установленный внешний ASPI-интерфейс
Выходной формат : Внутренние WAV-операции
Формат сэмплов : 44.100 Гц; 16 бит; стерео
TOC извлечённого CD
Трек | Старт | Длительность | Начальный сектор | Конечный сектор
---------------------------------------------------------------------
1 | 0:00.00 | 9:49.40 | 0 | 44214
2 | 9:49.40 | 3:34.50 | 44215 | 60314
3 | 13:24.15 | 2:11.45 | 60315 | 70184
4 | 15:35.60 | 7:15.63 | 70185 | 102872
5 | 22:51.48 | 3:41.20 | 102873 | 119467
6 | 26:32.68 | 4:02.70 | 119468 | 137687
7 | 30:35.63 | 3:35.07 | 137688 | 153819
8 | 34:10.70 | 2:32.35 | 153820 | 165254
9 | 36:43.30 | 1:58.48 | 165255 | 174152
10 | 38:42.03 | 6:25.67 | 174153 | 203094
11 | 45:07.70 | 5:25.38 | 203095 | 227507
12 | 50:33.33 | 5:27.25 | 227508 | 252057
Характеристики диапазона извлечения и сообщения об ошибках
Выбранный диапазон
Имя файла D:\Музыка\Jose Carreras\Jose Carreras - For Ever Gold.wav
Пиковый уровень 94.1 %
Качество диапазона 100.0 %
CRC теста 1F836B46
CRC копии 1F836B46
Копирование... OK
Ошибок не произошло
Конец отчёта


Скачать торрент 208.01 МБ


Download
Для скачивания .torrent файлов необходима регистрация
Сайт не распространяет и не хранит электронные версии произведений, а лишь предоставляет доступ к создаваемому пользователями каталогу ссылок на торрент-файлы, которые содержат только списки хеш-сумм

Страница 1 из 1

Ответить на тему

   Похожие торренты   Торрент