Регистрация ·  Логин: Пароль: Запомнить   · Забыли пароль?




Ответить на тему
Статистика раздачи
Размер: 203.16 МБ | Зарегистрирован: 10 мар 2018, 13:24 | .torrent скачан: 0 раз(а)
Сидеров: [ 1  | 0 байт/сек ]   Личеров: [ 1  | 0 байт/сек ]   DHT: [ 1 / 0 ]
Автор Сообщение

Модератор
Аватара пользователя

Стаж: 6 лет
Сообщения: 7870
Молдова

Сообщение 10 мар 2018, 13:24 

[Цитировать]

The Dante Troubadours (Martin Best Mediaeval Ensemble)

Жанр: Classical vocal
Страна-производитель диска: Made in England?
Год издания диска: LP - 1982 / CD - 1982
Издатель (лейбл): Nimbus Records
Номер по каталогу: DIDZ-10005
Дата записи: 1982
Аудиокодек: FLAC
Тип рипа: image+.cue
Битрейт аудио: lossless
Продолжительность: 49'16
Источник: релизер
сайт-источник/ник/другое: sonusantiqva
Наличие сканов в содержимом раздачи: да
Код:
Anon.:
01. Lamento di Tristan
Guiraut de Bornelh:
02. Leu chansoneta
Bertran de Born:
03. Ges de disnar
Guiraut de Bornelh:
04. Si.us quer conselh
Bertran de Born:
05. Chasutz sui
Arnaut Daniel:
06. Lo ferm voler
07. Chanson do.lh mot
Bernart de Ventadorn:
08. Can vei la lauzeta
Anon.:
09. Trotto (instrumental)
Peire Vidal:
10. Pois tornaz
Raimbaut de Vaqueiras:
11. Kalenda Maya
Anon.:
12. Salterello (instrumental)
Gaucelm Faichit (aka Faidit):
13. Non alegra
Aimeric de Belenoi:
14. Nuls om en ren
Bertran de Born:
15. Ai, Lemozi
Anon.:
16. Lauda novella
Folquet de Marselha:
17. Ben an mort
Anon.:
18. Istampitta (instrumental)
Код:
[b]The Dante Troubadours[/b]
Martin Best Mediaeval Ensemble:
Martin Best, Jremy Barlow, David Corkhill, Alastair McLachlan (playing: pipe, tabor, rebec, guitarra moresca, finger cymbals, lute, timbrel, voice, dulcimer, oud, tambura, nakers, psaltery, bells)
Lugar y fecha de grabación: Nimbus Studio, Wyastone Leys, Monmouth [febrero 1982]
Audio CD (November 18, 1997)
Код:
Exact Audio Copy V0.99 prebeta 1 from 25. May 2007
EAC extraction logfile from 27. September 2008, 20:07
Martin Best / The Dante Troubadours
Used drive  : PLEXTOR DVDR   PX-800A   Adapter: 0  ID: 0
Read mode               : Secure
Utilize accurate stream : Yes
Defeat audio cache      : Yes
Make use of C2 pointers : No
Read offset correction                      : 48
Overread into Lead-In and Lead-Out          : No
Fill up missing offset samples with silence : Yes
Delete leading and trailing silent blocks   : No
Used interface                              : Installed external ASPI interface
TOC of the extracted CD
     Track |   Start  |  Length  | Start sector | End sector
    ---------------------------------------------------------
        1  |  0:00.00 |  2:22.00 |         0    |    10649
        2  |  2:22.00 |  2:20.47 |     10650    |    21196
        3  |  4:42.47 |  2:03.03 |     21197    |    30424
        4  |  6:45.50 |  6:12.67 |     30425    |    58391
        5  | 12:58.42 |  2:49.33 |     58392    |    71099
        6  | 15:48.00 |  0:20.00 |     71100    |    72599
        7  | 16:08.00 |  3:22.00 |     72600    |    87749
        8  | 19:30.00 |  3:40.00 |     87750    |   104249
        9  | 23:10.00 |  1:47.00 |    104250    |   112274
       10  | 24:57.00 |  4:23.50 |    112275    |   132049
       11  | 29:20.50 |  2:25.62 |    132050    |   142986
       12  | 31:46.37 |  1:49.38 |    142987    |   151199
       13  | 33:36.00 |  4:07.37 |    151200    |   169761
       14  | 37:43.37 |  2:20.13 |    169762    |   180274
       15  | 40:03.50 |  4:26.60 |    180275    |   200284
       16  | 44:30.35 |  1:15.15 |    200285    |   205924
       17  | 45:45.50 |  2:25.57 |    205925    |   216856
       18  | 48:11.32 |  1:04.43 |    216857    |   221699
Range status and errors
Selected range
     Filename C:\The Dante Troubadours-Martin Best\Martin Best - The Dante Troubadours.wav
     Peak level 61.9 %
     Range quality 100.0 %
     Test CRC 0227FB3B
     Copy CRC 0227FB3B
     Copy OK
AccurateRip summary
Track  1  accurately ripped (confidence 2)  [5C883242]
Track  2  accurately ripped (confidence 2)  [94D552BE]
Track  3  accurately ripped (confidence 2)  [790A80E7]
Track  4  accurately ripped (confidence 2)  [268F9F4A]
Track  5  accurately ripped (confidence 2)  [628F25A3]
Track  6  accurately ripped (confidence 2)  [F871DEF9]
Track  7  accurately ripped (confidence 2)  [AC681EDB]
Track  8  accurately ripped (confidence 2)  [5A973AB3]
Track  9  accurately ripped (confidence 2)  [440C1F79]
Track 10  accurately ripped (confidence 2)  [8DCB533B]
Track 11  accurately ripped (confidence 2)  [CCC44EDB]
Track 12  accurately ripped (confidence 2)  [9DFC326C]
Track 13  not present in database
Track 14  accurately ripped (confidence 2)  [F351B9E4]
Track 15  accurately ripped (confidence 2)  [0A9B972B]
Track 16  accurately ripped (confidence 2)  [4C895449]
Track 17  accurately ripped (confidence 2)  [83714F7B]
Track 18  not present in database
No errors occurred
End of status report
Код:
REM DISCID 050B8C12
REM COMMENT "ExactAudioCopy v0.99pb1"
PERFORMER "Martin Best"
TITLE "The Dante Troubadours"
FILE "Martin Best - The Dante Troubadours.flac" WAVE
  TRACK 01 AUDIO
    TITLE "Anon: Lamento di Tristan"
    PERFORMER "Martin Best"
    INDEX 01 00:00:00
  TRACK 02 AUDIO
    TITLE "Guiraut de Bornelh: Leu chansoneta"
    PERFORMER "Martin Best"
    INDEX 01 02:22:00
  TRACK 03 AUDIO
    TITLE "Bertran de Born: Ges de disnar"
    PERFORMER "Martin Best"
    INDEX 01 04:42:47
  TRACK 04 AUDIO
    TITLE "Guiraut de Bornelh: Si.us quer conselh"
    PERFORMER "Martin Best"
    INDEX 01 06:45:50
  TRACK 05 AUDIO
    TITLE "Bertran de Born: Chasutz sui"
    PERFORMER "Martin Best"
    INDEX 01 12:58:42
  TRACK 06 AUDIO
    TITLE "Arnaut Daniel: Lo ferm voler"
    PERFORMER "Martin Best"
    INDEX 01 15:48:00
  TRACK 07 AUDIO
    TITLE "Arnaut Daniel: Chanson do.lh mot"
    PERFORMER "Martin Best"
    INDEX 01 16:08:00
  TRACK 08 AUDIO
    TITLE "Bernart de Ventadorn: Can vei la lauzeta"
    PERFORMER "Martin Best"
    INDEX 01 19:30:00
  TRACK 09 AUDIO
    TITLE "Anon: Trotto (instrumental)"
    PERFORMER "Martin Best"
    INDEX 01 23:10:00
  TRACK 10 AUDIO
    TITLE "Piere Vidal: Pois tornaz"
    PERFORMER "Martin Best"
    INDEX 01 24:57:00
  TRACK 11 AUDIO
    TITLE "Raimbaut de Vaqueiras: Kalenda Maya"
    PERFORMER "Martin Best"
    INDEX 01 29:20:50
  TRACK 12 AUDIO
    TITLE "Anon: Salterello (instrumental)"
    PERFORMER "Martin Best"
    INDEX 01 31:46:37
  TRACK 13 AUDIO
    TITLE "Gaucelm Faichit (aka Faidit): Non alegra"
    PERFORMER "Martin Best"
    INDEX 01 33:36:00
  TRACK 14 AUDIO
    TITLE "Aimeric de Belenoi: Nuls om en ren"
    PERFORMER "Martin Best"
    INDEX 01 37:43:37
  TRACK 15 AUDIO
    TITLE "Bertran de Born: Ai, Lemozi"
    PERFORMER "Martin Best"
    INDEX 01 40:03:50
  TRACK 16 AUDIO
    TITLE "Anon: Lauda novella"
    PERFORMER "Martin Best"
    INDEX 01 44:30:35
  TRACK 17 AUDIO
    TITLE "Folquet de Marselha: Ben an mort"
    PERFORMER "Martin Best"
    INDEX 01 45:45:50
  TRACK 18 AUDIO
    TITLE "Anon: Istampitta (instrumental)"
    PERFORMER "Martin Best"
    INDEX 01 48:11:32


Скачать торрент 203.16 МБ


Download
Для скачивания .torrent файлов необходима регистрация
Сайт не распространяет и не хранит электронные версии произведений, а лишь предоставляет доступ к создаваемому пользователями каталогу ссылок на торрент-файлы, которые содержат только списки хеш-сумм

Страница 1 из 1

Ответить на тему

   Похожие торренты   Торрент 




cron