Регистрация ·  Логин: Пароль: Запомнить   · Забыли пароль?




Ответить на тему
Статистика раздачи
Размер: 327.31 МБ | Зарегистрирован: 10 мар 2018, 13:24 | .torrent скачан: 0 раз(а)
Сидеров: [ 0  | 0 байт/сек ]   Личеров: [ 0  | 0 байт/сек ]   DHT: [ 0 / 0 ]
Автор Сообщение

Модератор
Аватара пользователя

Стаж: 6 лет
Сообщения: 7870
Молдова

Сообщение 10 мар 2018, 13:24 

[Цитировать]

Ensemble Alcatraz
Cantigas de Amigo
Жанр: Medieval
Год выпуска диска: 2000
Производитель диска: Dorian Recordings, США
Аудио кодек: APE
Тип рипа: image+.cue
Битрейт аудио: lossless
Продолжительность: 1:05:22Трэклист:
Alfonso el Sabio (attr.): Cantigas de Santa Maria
1. Cantiga 380: Sen calar
Trad. Galicia
2. Alborada
Juao Bolseiro (t) / Kammen (m)
3. Sen meu amigo
Trad., portuguese melody, arr. Higginson
4. Alvorada
Pero Meogo (t) / Kammen (m)
5. Enas verdes ervas
Martin de Padrozelos (t) / Trad. Catalan (m)
6. Por Deus
Alfonso el Sabio (attr.): Cantigas de Santa Maria
7. Cantiga 11: Macar ome per folia (instr.)
King Dinis (t) / Higginson (m)
8. Levantous' a velida
Anon. (t) / Higginson (m)
9. Bailemos nos jas todas (on text: Airas Nunes de Santiago)
Martin Codax: Cantigas de amigo
10. I.: Ondas do mare
11. II.: Mandad'ei comigo
12. III.: Mia irmana fremosa
13. IV.: Ai Deus, se sab'ora meu amigo
14. V.: Quantas sabedes amare amigo
15. VI.: Eno sagrado en Vigo
16. VII.: Ai ondas que eu vin veere
Alfonso el Sabio (attr.): Cantigas de Santa Maria
17. Cantiga 10: Rosa das rosasДоп. информация:
13th-Century Galician-Portuguese Songs & Dances of Love, Longing & Devotion
Ensemble Alcatraz: Cheryl Ann Fulton (harps), Kit Higginson (recorders, psaltery), Shira Kammen (vielle, rebec), Peter Maund (percussion), Susan Rode Morris (soprano)
Kitka - Women's Vocal Ensemble: Leslie Bonnett, Shira Cion, Catherine Rose Crowther, Deborah Dietrich, Juliana Graffagna, Janet Kutulas, Ann Moorhead, Lily Storm
Angelorum - Medieval Harp Choir: Bertty Nelson (harp), Dfiana Rowan (harp), Eva Palviainen (harp) www.medieval.org
Код:
Exact Audio Copy V0.99 prebeta 1 from 25. May 2007
Archivo Log de extracciones desde 8. Julio 2007, 3:10
Ensemble Alcatraz with Kitka / Cantigas De Amigo
Usar unidad  : HL-DT-STCD-RW GCE-8400B   Adapter: 1  ID: 1
Modo de Lectura           : Seguro
Utilizar Corriente Exacta : Sн
Descartar Audio cachй     : Sн
Utilizar los punteros C2  : No
Correcciуn de Desplazamiento de Lectura       : 12
Sobreleer tanto en Lead-In como en Lead-Out   : No
Rellenar las muestras faltantes con silencios : Sн
Eliminar silencios inicial y final            : No
Interfaz usada                                : Interfaz ASPI externo instalado
Formato de Salida utilizado               : Compresor definido por el usuario
Bitrate seleccionado                      : 320 kBit/s
Calidad                                   : Alta
Aсadir Etiqueta ID3                       : No
Compresor de linea de comandos            : C:\Archivos de programa\Exact Audio Copy\Flac\flac.exe
Opciones adicionales en lнnea de comandos : -V -8 -T "artist=%a" -T "title=%t" -T "album=%g" -T "date=%y" -T "tracknumber=%n" -T "genre=%m" %s
TOC del CD extraido
     Pista |  Inicio  | Duraciуn | Sector inicial | Sector final
    -------------------------------------------------------------
        1  |  0:00.00 |  5:16.07 |          0     |     23706
        2  |  5:16.07 |  2:37.50 |      23707     |     35531
        3  |  7:53.57 |  4:14.70 |      35532     |     54651
        4  | 12:08.52 |  3:07.30 |      54652     |     68706
        5  | 15:16.07 |  6:17.73 |      68707     |     97054
        6  | 21:34.05 |  2:37.35 |      97055     |    108864
        7  | 24:11.40 |  8:35.00 |     108865     |    147489
        8  | 32:46.40 |  1:40.42 |     147490     |    155031
        9  | 34:27.07 |  4:15.13 |     155032     |    174169
       10  | 38:42.20 |  4:59.65 |     174170     |    196659
       11  | 43:42.10 |  1:22.42 |     196660     |    202851
       12  | 45:04.52 |  2:25.40 |     202852     |    213766
       13  | 47:30.17 |  4:19.70 |     213767     |    233261
       14  | 51:50.12 |  2:20.53 |     233262     |    243814
       15  | 54:10.65 |  3:45.25 |     243815     |    260714
       16  | 57:56.15 |  2:24.20 |     260715     |    271534
       17  | 60:20.35 |  5:01.67 |     271535     |    294176
Gama de estados y errores
Seleccionar gama
     Nombre de Archivo C:\Ensemble Alcatraz with Kitka - Cantigas De Amigo.wav
     Nivel Pico 99.8 %
     Gama de Calidad 99.9 %
     Test CRC 0612700E
     Copiar CRC 0612700E
     Copia OK
Sin Errores
Final del Informe
(Medieval) Paulina Ceremuzynska - Cantigas de amor e de amigo - 2004, FLAC (image+.cue), lossless


Скачать торрент 327.31 МБ


Download
Для скачивания .torrent файлов необходима регистрация
Сайт не распространяет и не хранит электронные версии произведений, а лишь предоставляет доступ к создаваемому пользователями каталогу ссылок на торрент-файлы, которые содержат только списки хеш-сумм

Страница 1 из 1

Ответить на тему

   Похожие торренты   Торрент 




cron