Регистрация ·  Логин: Пароль: Запомнить   · Забыли пароль?




Ответить на тему
Статистика раздачи
Размер: 604.68 МБ | Зарегистрирован: 10 мар 2018, 13:24 | .torrent скачан: 0 раз(а)
Сидеров: [ 1  | 0 байт/сек ]   Личеров: [ 0  | 0 байт/сек ]   DHT: [ 1 / 0 ]
Автор Сообщение

Модератор
Аватара пользователя

Стаж: 6 лет
Сообщения: 7870
Молдова

Сообщение 10 мар 2018, 13:24 

[Цитировать]

The very Best of Jose Carreras

Жанр: Вокал
Год выпуска диска: 2003
Производитель диска: EMI classic EU
Аудио кодек: APE
Тип рипа: image+.cue
Битрейт аудио: lossless
Продолжительность: Disc 1 - 77'27", Disc 2 - 77'45"
Трэклист:
Disc 1
01. Celeste Aida - Aida, Verdi [0:04:55.70]
02. Pur Ti Riveggo, Mia Dolce Aida - Aida, Verdi [0:13:30.45]
03. La Fatal Pietra - Aida, Verdi [0:12:24.42]
04. Ah, La Paterna Mano - Macbeth, Verdi [0:03:49.53]
05. Tu Qui, Santuzza? - Cavalleria Rusticana, Mascani [0:12:53.45]
06. Viva Il Vino Spumeggiante - Cavalleria Rusticana, Mascani [0:03:15.12]
07. Mamma, Quel Vino E Generoso - Cavalleria Rusticana, Mascani [0:03:46.38]
08. Un Tal Gioco - Pagliacci, Leoncavallo [0:05:46.47]
09. Vesti La Giubba- Pagliacci, Leoncavallo [0:03:57.18]
10. No, Pagliaccio Non Son- Pagliacci, Leoncavallo [0:06:20.47]
11. Non Piangere, Liu - Turandot, Puccini [0:02:36.70]
12. Nessun Dorma - Turandot, Puccini [0:04:10.20]
Отчёт EAC об извлечении, выполненном 31. июля 2008, 19:26 для диска:
Jose Carreras / The Very Best of
Дисковод: _NEC DVD_RW ND-4571A Adapter: 0 ID: 1
Режим чтения: Достоверный (C2: нет, Точный поток: да, Отключение кэша: да)
Коррекция смещения при чтении: 48
Способность читать области Lead-in и Lead-out : Нет
Выходной формат: Внутренние WAV-операции
44.100 Гц; 16 бит; стерео
Другие параметры:
Заполнение пропущенных сэмплов тишиной : Да
Удаление блоков с тишиной в начале и конце : Нет
Установленный внешний ASPI-интерфейс
Характеристики диапазона извлечения и сообщения об ошибках
Выбранный диапазон
Имя файла C:\Documents and Settings\Администратор\Рабочий стол\1\Jose Carreras - The Very Best of.wav
Пиковый уровень 99.9 %
Качество диапазона 99.9 %
CRC 409E77F4
Копирование... OK
Ошибок не произошло
Конец отчёта
REM GENRE Classical
REM DATE 2003
REM DISCID B312270C
REM COMMENT "ExactAudioCopy v0.95b4"
PERFORMER "Jose Carreras"
TITLE "The Very Best of"
FILE "Jose Carreras - The Very Best of.wav" WAVE
TRACK 01 AUDIO
TITLE "Celeste Aida - Aida, Verdi"
PERFORMER "Jose Carreras"
INDEX 01 00:00:00
TRACK 02 AUDIO
TITLE "Pur Ti Riveggo, Mia Dolce Aida - Aida, Verdi"
PERFORMER "Jose Carreras"
INDEX 00 04:50:70
INDEX 01 04:55:70
TRACK 03 AUDIO
TITLE "La Fatal Pietra - Aida, Verdi"
PERFORMER "Jose Carreras"
INDEX 00 18:22:02
INDEX 01 18:26:40
TRACK 04 AUDIO
TITLE "Ah, La Paterna Mano - Macbeth, Verdi"
PERFORMER "Jose Carreras"
INDEX 00 30:46:62
INDEX 01 30:51:07
TRACK 05 AUDIO
TITLE "Tu Qui, Santuzza? - Cavalleria Rusticana, Mascani"
PERFORMER "Jose Carreras"
INDEX 00 34:36:32
INDEX 01 34:40:60
TRACK 06 AUDIO
TITLE "Viva Il Vino Spumeggiante - Cavalleria Rusticana, Mascani"
PERFORMER "Jose Carreras"
INDEX 00 47:31:45
INDEX 01 47:34:30
TRACK 07 AUDIO
TITLE "Mamma, Quel Vino E Generoso - Cavalleria Rusticana, Mascani"
PERFORMER "Jose Carreras"
INDEX 00 50:44:62
INDEX 01 50:49:42
TRACK 08 AUDIO
TITLE "Un Tal Gioco - Pagliacci, Leoncavallo"
PERFORMER "Jose Carreras"
INDEX 00 54:31:32
INDEX 01 54:36:05
TRACK 09 AUDIO
TITLE "Vesti La Giubba- Pagliacci, Leoncavallo"
PERFORMER "Jose Carreras"
INDEX 00 60:18:52
INDEX 01 60:22:52
TRACK 10 AUDIO
TITLE "No, Pagliaccio Non Son- Pagliacci, Leoncavallo"
PERFORMER "Jose Carreras"
INDEX 00 64:15:62
INDEX 01 64:19:70
TRACK 11 AUDIO
TITLE "Non Piangere, Liu - Turandot, Puccini"
PERFORMER "Jose Carreras"
INDEX 00 70:35:65
INDEX 01 70:40:42
TRACK 12 AUDIO
TITLE "Nessun Dorma - Turandot, Puccini"
PERFORMER "Jose Carreras"
INDEX 00 73:13:52
INDEX 01 73:17:37
Disc 2
01. Lo L'ho Perduta...Lo La Vidi - Don Carlo, Verdi [0:03:27.47]
02. Dio Che Nell'alma Infondere - Don Carlo, Verdi [0:04:54.60]
03. Perduto Ben Mio Sol Tesor - Don Carlo, Verdi [0:07:16.48]
04. La Fleur Que Tu M'avais Jetee (Flower Song) - Carmen, Bizet [0:04:30.52]
05. Salu! Demeure Chaste Et Pure - Faust, Gounod [0:06:28.10]
06. Ah! Leve-toi, Soleil - Romeo & Juliette, Gounod [0:04:41.65]
07. Source Delicieuse - Polyeucte, Gounod [0:05:58.65]
08. O Souverain, O Juge, O Pere - Le Cid, Massenet [0:05:21.40]
09. Ah! Quil Est Loin Mon Pays - Sappho, Massenet [0:04:23.13]
10. Adieu Donc, Vains Objects - Herodiade, Massenet [0:05:42.35]
11. Rachel! Quand Du Seigneur - La Juive, Halevy [0:06:20.62]
12. O Paradis - L'Africaine, MeyerBeer [0:03:26.55]
13. Vainement, Ma Bien-Aimee - Le ROi d'Ys, Lalo [0:03:48.03]
14. Le Conquerant Dit A La Jeune Indienne - La Perichole, Offenbach [0:02:37.30]
15. Vous A T'on Dit Souvent - La Perichole, Offenbach [0:02:36.42]
16. Et La Maintenant Que Nous Sommes Seuls - La Perichole, Offenbach [0:02:10.45]
17. On Me Proposait D'etre Infame - La Perichole, Offenbach [0:03:59.05]
Отчёт EAC об извлечении, выполненном 31. июля 2008, 0:11 для диска:
Jose Carreras / The Very Best of
Дисковод: _NEC DVD_RW ND-4571A Adapter: 0 ID: 1
Режим чтения: Достоверный (C2: нет, Точный поток: да, Отключение кэша: да)
Коррекция смещения при чтении: 48
Способность читать области Lead-in и Lead-out : Нет
Выходной формат: Внутренние WAV-операции
44.100 Гц; 16 бит; стерео
Другие параметры:
Заполнение пропущенных сэмплов тишиной : Да
Удаление блоков с тишиной в начале и конце : Нет
Установленный внешний ASPI-интерфейс
Характеристики диапазона извлечения и сообщения об ошибках
Выбранный диапазон
Имя файла C:\Documents and Settings\Администратор\Рабочий стол\1\Jose Carreras - The Very Best of.wav
Пиковый уровень 99.9 %
Качество диапазона 100.0 %
CRC ABF81529
Копирование... OK
Ошибок не произошло
Конец отчёта
REM GENRE Classical
REM DATE 2003
REM DISCID FB123911
REM COMMENT "ExactAudioCopy v0.95b4"
PERFORMER "Jose Carreras"
TITLE "The Very Best of"
FILE "Jose Carreras - The Very Best of.wav" WAVE
TRACK 01 AUDIO
TITLE "Lo L'ho Perduta...Lo La Vidi - Don Carlo, Verdi"
PERFORMER "Jose Carreras"
INDEX 01 00:00:00
TRACK 02 AUDIO
TITLE "Dio Che Nell'alma Infondere - Don Carlo, Verdi"
PERFORMER "Jose Carreras"
INDEX 00 03:23:18
INDEX 01 03:27:47
TRACK 03 AUDIO
TITLE "Perduto Ben Mio Sol Tesor - Don Carlo, Verdi"
PERFORMER "Jose Carreras"
INDEX 00 08:18:07
INDEX 01 08:22:32
TRACK 04 AUDIO
TITLE "La Fleur Que Tu M'avais Jetee (Flower Song) - Carmen, Bizet"
PERFORMER "Jose Carreras"
INDEX 00 15:34:20
INDEX 01 15:39:05
TRACK 05 AUDIO
TITLE "Salu! Demeure Chaste Et Pure - Faust, Gounod"
PERFORMER "Jose Carreras"
INDEX 00 20:05:25
INDEX 01 20:09:57
TRACK 06 AUDIO
TITLE "Ah! Leve-toi, Soleil - Romeo & Juliette, Gounod"
PERFORMER "Jose Carreras"
INDEX 00 26:33:32
INDEX 01 26:37:67
TRACK 07 AUDIO
TITLE "Source Delicieuse - Polyeucte, Gounod"
PERFORMER "Jose Carreras"
INDEX 00 31:15:25
INDEX 01 31:19:57
TRACK 08 AUDIO
TITLE "O Souverain, O Juge, O Pere - Le Cid, Massenet"
PERFORMER "Jose Carreras"
INDEX 00 37:14:35
INDEX 01 37:18:47
TRACK 09 AUDIO
TITLE "Ah! Quil Est Loin Mon Pays - Sappho, Massenet"
PERFORMER "Jose Carreras"
INDEX 00 42:35:52
INDEX 01 42:40:12
TRACK 10 AUDIO
TITLE "Adieu Donc, Vains Objects - Herodiade, Massenet"
PERFORMER "Jose Carreras"
INDEX 00 46:58:40
INDEX 01 47:03:25
TRACK 11 AUDIO
TITLE "Rachel! Quand Du Seigneur - La Juive, Halevy"
PERFORMER "Jose Carreras"
INDEX 00 52:41:02
INDEX 01 52:45:60
TRACK 12 AUDIO
TITLE "O Paradis - L'Africaine, MeyerBeer"
PERFORMER "Jose Carreras"
INDEX 00 59:02:32
INDEX 01 59:06:47
TRACK 13 AUDIO
TITLE "Vainement, Ma Bien-Aimee - Le ROi d'Ys, Lalo"
PERFORMER "Jose Carreras"
INDEX 00 62:28:60
INDEX 01 62:33:27
TRACK 14 AUDIO
TITLE "Le Conquerant Dit A La Jeune Indienne - La Perichole, Offenbach"
PERFORMER "Jose Carreras"
INDEX 00 66:17:72
INDEX 01 66:21:30
TRACK 15 AUDIO
TITLE "Vous A T'on Dit Souvent - La Perichole, Offenbach"
PERFORMER "Jose Carreras"
INDEX 00 68:54:40
INDEX 01 68:58:60
TRACK 16 AUDIO
TITLE "Et La Maintenant Que Nous Sommes Seuls - La Perichole, Offenbach"
PERFORMER "Jose Carreras"
INDEX 00 71:31:35
INDEX 01 71:35:27
TRACK 17 AUDIO
TITLE "On Me Proposait D'etre Infame - La Perichole, Offenbach"
PERFORMER "Jose Carreras"
INDEX 00 73:41:60
INDEX 01 73:45:72


Скачать торрент 604.68 МБ


Download
Для скачивания .torrent файлов необходима регистрация
Сайт не распространяет и не хранит электронные версии произведений, а лишь предоставляет доступ к создаваемому пользователями каталогу ссылок на торрент-файлы, которые содержат только списки хеш-сумм

Страница 1 из 1

Ответить на тему

   Похожие торренты   Торрент