Регистрация ·  Логин: Пароль: Запомнить   · Забыли пароль?




Ответить на тему
Статистика раздачи
Размер: 274.52 МБ | Зарегистрирован: 10 мар 2018, 13:24 | .torrent скачан: 0 раз(а)
Сидеров: [ 0  | 0 байт/сек ]   Личеров: [ 0  | 0 байт/сек ]   DHT: [ 0 / 0 ]
Автор Сообщение

Модератор
Аватара пользователя

Стаж: 6 лет
Сообщения: 7870
Молдова

Сообщение 10 мар 2018, 13:24 

[Цитировать]

Handel – Terpsicore HWV 8b, Alcina (orchestral parts), Ariodante (ballet music) (Nicholas Mcgegan, Pal Nemeth)

Жанр: Classical
Год выпуска диска: 1993
Производитель диска: + 1993 Hungaroton Classic, Ltd.
Аудио кодек: APE
Тип рипа: image+.cue
Битрейт аудио: lossless
Продолжительность: 61:20
Исполнители:
Erato - Katalin Farkas (soprano)
Apollo - Derek Lee Ragin (male alt)
Camarakórus
Capella Savaria (On Period Instruments)
Conducted
Nicholas Mcgegan (1-22)
Pal Nemeth (23-26)
Трэклист:
Terpsicore (1734) HWV 8b
1 Terpsicore (1734) HWV 8b. Ouverture: Largo - Allegro
2 No.1 Coro: I Nostri Cori
3 Recitativo: Melodiosa Germana (Apollo)
4 No.2. Aria: Gran Tonante (Apollo)
5 Recitativo: Ma Terpsicore Snella, Dov'è? (Erato, Apollo)
6 No.3. Aria: Di Parnasso I Dolci Accenti (Erato)
7 No.4 Prelude: Larghetto
8 Recitativo: Ecco Sen Vien (Apollo)
9 No.5 Chaconne: Tempójelzés Nélkül / Without Tempi Indication
10 No.6 Duetto: Col Tuo Piede (Apollo, Erato)
11 No.7 Sarabanda: Largo Assai
12 Recitativo: Pingi Is Trasporti D'un Amator (Apollo)
13 No.8 Gigue: Presto
14 Recitativo: La Speme E Cura D'un Fido Amor (Erato)
15 No.9 Duetto: Tuoi Passi Son Dardi (Apollo, Erato)
16 Recitativo: La Gelosia, Cieco Il Furor (Apollo)
17 No.10 Air: Without tempo indication-un poco più presto
18 Recitativo: Dai, Quando Vuoi (Arato, Apollo)
19 No.11 Aria: Hai Tanto Rapido (Apollo)
20 No.12 (Ballo): Without tempo indication
21 No.13 Duetto: Vezzi Più Amabili (Apollo, Erato)
22 No.14 Coro: Cantiamo Lieti Della Virtù
Alcina (1735) HWV 34
23 Alcina (1735) HWV 34. Ouverture: (pomposa.) - Allegro
24 Musette: Un peu lentement
25 Menuet: Allegro e forte (Allegro ma non troppo) Ballo (Act 1. Scene 2)
26 a) No.3 Gavotte: (alla Breve)
27 b) No.4 Sarabande: Adagio (tempo Di Sarabanda) - No. 3 Gavotte: (Alla breve)
28 No.5 Menuet: Without Tempo Indication
29 No.6 (Gavotte: Alla breve)
30 No.29 Sinfonia (Act 3): Allegro
31 No.40 Entrée (Act 3. Last scene) Without tempo indication
32 No.41 Tamburino (Act 3. Last scene) Without tempo indication
Ariodante (1734) HWV 33
33 Ariodante (1734) HWV 33. Ballet Music (Act 2): No.31 Entrée des Songes agréables: larg(hett)o E Pian (issim)o
34 No.32 Entrée des Songes funestes: Without tempo indication - No.33 Allegro
35 No.34 Entrée des Songes agréables effrayés: Without tempo indication
36 Le combat des Songes agréables effrayés: Without tempo indication
Доп. информация:
Exact Audio Copy V0.99 prebeta 4 from 23. January 2008
EAC extraction logfile from 6. June 2010, 0:26
Katalin Farkas, Derek Lee Ragin, Nicholas Mcgegan, Pal Nemeth / Handel – Terpsicore HWV 8b, Alcina (orchestral parts), Ariodante (ballet music)
Used drive : Optiarc DVD RW AD-7173A Adapter: 1 ID: 1
Read mode : Secure
Utilize accurate stream : Yes
Defeat audio cache : Yes
Make use of C2 pointers : No
Read offset correction : 48
Overread into Lead-In and Lead-Out : No
Fill up missing offset samples with silence : Yes
Delete leading and trailing silent blocks : No
Null samples used in CRC calculations : Yes
Used interface : Native Win32 interface for Win NT & 2000
Used output format : Internal WAV Routines
Sample format : 44.100 Hz; 16 Bit; Stereo
TOC of the extracted CD
Track | Start | Length | Start sector | End sector
---------------------------------------------------------
1 | 0:00.00 | 3:12.15 | 0 | 14414
2 | 3:12.15 | 1:48.10 | 14415 | 22524
3 | 5:00.25 | 0:25.25 | 22525 | 24424
4 | 5:25.50 | 6:57.10 | 24425 | 55709
5 | 12:22.60 | 0:23.00 | 55710 | 57434
6 | 12:45.60 | 5:30.25 | 57435 | 82209
7 | 18:16.10 | 0:23.57 | 82210 | 83991
8 | 18:39.67 | 0:20.00 | 83992 | 85491
9 | 18:59.67 | 4:29.60 | 85492 | 105726
10 | 23:29.52 | 0:52.68 | 105727 | 109694
11 | 24:22.45 | 1:40.17 | 109695 | 117211
12 | 26:02.62 | 0:09.13 | 117212 | 117899
13 | 26:12.00 | 1:05.70 | 117900 | 122844
14 | 27:17.70 | 0:11.52 | 122845 | 123721
15 | 27:29.47 | 3:40.73 | 123722 | 140294
16 | 31:10.45 | 0:08.70 | 140295 | 140964
17 | 31:19.40 | 1:31.00 | 140965 | 147789
18 | 32:50.40 | 0:11.65 | 147790 | 148679
19 | 33:02.30 | 1:59.20 | 148680 | 157624
20 | 35:01.50 | 1:18.50 | 157625 | 163524
21 | 36:20.25 | 2:10.10 | 163525 | 173284
22 | 38:30.35 | 1:39.37 | 173285 | 180746
23 | 40:09.72 | 3:17.58 | 180747 | 195579
24 | 43:27.55 | 1:38.62 | 195580 | 202991
25 | 45:06.42 | 0:58.65 | 202992 | 207406
26 | 46:05.32 | 0:50.53 | 207407 | 211209
27 | 46:56.10 | 1:30.70 | 211210 | 218029
28 | 48:27.05 | 1:51.50 | 218030 | 226404
29 | 50:18.55 | 0:47.20 | 226405 | 229949
30 | 51:06.00 | 0:54.20 | 229950 | 234019
31 | 52:00.20 | 2:00.10 | 234020 | 243029
32 | 54:00.30 | 1:02.70 | 243030 | 247749
33 | 55:03.25 | 2:07.30 | 247750 | 257304
34 | 57:10.55 | 1:50.35 | 257305 | 265589
35 | 59:01.15 | 0:54.07 | 265590 | 269646
36 | 59:55.22 | 1:24.53 | 269647 | 275999
Range status and errors
Selected range
Filename C:\Documents and Settings\Handel – Terpsicore HWV 8b, Alcina (orchestral parts), Ariodante (ballet music).wav
Peak level 97.7 %
Range quality 99.9 %
Copy CRC 1D7C85D1
Copy OK
No errors occurred
End of status report



Скачать торрент 274.52 МБ


Download
Для скачивания .torrent файлов необходима регистрация
Сайт не распространяет и не хранит электронные версии произведений, а лишь предоставляет доступ к создаваемому пользователями каталогу ссылок на торрент-файлы, которые содержат только списки хеш-сумм

Страница 1 из 1

Ответить на тему

   Похожие торренты   Торрент 




cron