Регистрация ·  Логин: Пароль: Запомнить   · Забыли пароль?




Ответить на тему
Статистика раздачи
Размер: 177.13 МБ | Зарегистрирован: 10 мар 2018, 13:24 | .torrent скачан: 0 раз(а)
Сидеров: [ 0  | 0 байт/сек ]   Личеров: [ 0  | 0 байт/сек ]   DHT: [ 0 / 0 ]
Автор Сообщение

Модератор
Аватара пользователя

Стаж: 6 лет
Сообщения: 7870
Молдова

Сообщение 10 мар 2018, 13:24 

[Цитировать]

ITALIAN POPULAR SONGS 1
(Gigli,Pertile,Schipa,Schmidt,Del Monaco,Bjorling,Kiepura,Tagliavini,Di Stefano,Ziliani)

Жанр: VOCAL
Год выпуска диска: 2004
Производитель диска: NAXOS
Аудио кодек
: APE
Тип рипа: image+.cue
Битрейт аудио: lossless
Продолжительность: 78:17
Трэклист:
01 FRANCESCO PAOLO TOSTI (1846-1916): 'A vucchella 2:43
Sung by Tito Schipa
02 FRANCESCO PAOLO TOSTI (1846-1916): L'alba separa dalla luce 1'ombra 2:26
Sung by Jussi Bjorling
03 MICHELE ESPOSITO (1855-1929): Anema e core 3:49
Sung by Ferruccio Tagliavini
04 ALOIS MELICHAR (1896-1975): Anima mia 3:21
Sung by Beniamino Gigli
05 ERNESTO DE CURTIS (1875-1937): Carmela 3:06
Sung by Beniamino Gigli
06 ERNESTO DE CURTIS (1875-1937): Canta pe' me! 3:24
Sung by Beniamino Gigli
07 RICHARD BARTHELEMY (19th/20th century): Chi se nne scorda cchiu 2:47
Sung by Tito Schipa
08 SALVATORE CARDILLO (1874-1947): Core 'ngrato 3:42
Sung by Giuseppe Di Stefano
09 GIOACHINO ROSSINI (1792-1868): La danza 2:51
Sung by Jan Kiepura
10 LUIGI DENZA (1846-1922): Funiculi, funicula 2:37
Sung by Alessandro Ziliani
11 FRANCESCO PAOLO TOSTI (1846-1916): Ideale 3:25
Sung by Jussi Bjorling
12 EMANUELE NUTILE (1862-1932): Mamma mia, che vo' sape'? 3:47
Sung by Beniamino Gigli
13 ERNESTO TAGLIAFERRI (1889-1937): Mandulinata a Napoli 2:55
Sung by Joseph Schmidt
14 FRANCESCO PAOLO TOSTI (1846-1916): Marechiare 3:33
Sung by Giuseppe Di Stefano
15 RUGGIERO LEONCAVALLO (1857-1919): Mattinata 2:05
Sung by Aureliano Pertile
16 STANISLAO GASTALDON (1861-1939): Musica proibita 3:43
Sung by Mario Del Monaco
17 EDOARDO DI CAPUA (1859-1920): 'O sole mio 3:18
Sung by Jussi Bjorling
18 LUIGI DENZA (1846-1922): Occhi di fata 3:00
Sung by Beniamino Gigli
19 TEODORO COTTRAU (1827-1879): Santa Lucia 3:24
Sung by Joseph Schmidt
20 FRANCESCO PAOLO TOSTI (1846-1916): Serenata 3:34
Sung by Beniamino Gigli
21 NICOLA VALENTE (1853-1939): Torna 3:36
Sung by Tito Schipa
22 ERNESTO DE CURTIS (1875-1937): Torna a Surriento 3:04
Sung by Tito Schipa
23 FRANCESCO PAOLO TOSTI (1846-1916): L'ultima canzone 4:31
Sung by Beniamino Gigli
24 TRADITIONAL arr. VERGINE: Vieni sul mar 3:34
Sung by Tito Schipa
Доп. информация:
ВСЕ ЗАПИСИ НА ИТАЛЬЯНСКОМ ЯЗЫКЕ
Exact Audio Copy V0.99 prebeta 4 from 23. January 2008
Отчёт EAC об извлечении, выполненном 24. августа 2009, 21:10
Unknown Artist / Unknown Title
Дисковод: TSSTcorpCDDVDW TS-L632H Adapter: 2 ID: 0
Режим чтения : Достоверность
Использование точного потока : Да
Отключение кэша аудио : Да
Использование указателей C2 : Нет
Коррекция смещения при чтении : 6
Способность читать области Lead-in и Lead-out : Нет
Заполнение пропущенных сэмплов тишиной : Да
Удаление блоков с тишиной в начале и конце : Нет
При вычислениях CRC использовались нулевые сэмплы : Да
Интерфейс : Установленный внешний ASPI-интерфейс
Выходной формат : Внутренние WAV-операции
Формат сэмплов : 44.100 Гц; 16 бит; стерео
TOC извлечённого CD
Трек | Старт | Длительность | Начальный сектор | Конечный сектор
---------------------------------------------------------------------
1 | 0:00.00 | 2:44.10 | 0 | 12309
2 | 2:44.10 | 2:26.60 | 12310 | 23319
3 | 5:10.70 | 3:47.40 | 23320 | 40384
4 | 8:58.35 | 3:21.07 | 40385 | 55466
5 | 12:19.42 | 3:06.35 | 55467 | 69451
6 | 15:26.02 | 3:23.60 | 69452 | 84736
7 | 18:49.62 | 2:47.13 | 84737 | 97274
8 | 21:37.00 | 3:42.50 | 97275 | 113974
9 | 25:19.50 | 2:51.02 | 113975 | 126801
10 | 28:10.52 | 2:37.53 | 126802 | 138629
11 | 30:48.30 | 3:24.30 | 138630 | 153959
12 | 34:12.60 | 3:48.40 | 153960 | 171099
13 | 38:01.25 | 2:55.27 | 171100 | 184251
14 | 40:56.52 | 3:32.33 | 184252 | 200184
15 | 44:29.10 | 2:05.22 | 200185 | 209581
16 | 46:34.32 | 3:41.38 | 209582 | 226194
17 | 50:15.70 | 3:18.05 | 226195 | 241049
18 | 53:34.00 | 3:00.07 | 241050 | 254556
19 | 56:34.07 | 3:24.48 | 254557 | 269904
20 | 59:58.55 | 3:33.37 | 269905 | 285916
21 | 63:32.17 | 3:36.68 | 285917 | 302184
22 | 67:09.10 | 3:03.50 | 302185 | 315959
23 | 70:12.60 | 4:30.47 | 315960 | 336256
24 | 74:43.32 | 3:31.43 | 336257 | 352124
Характеристики диапазона извлечения и сообщения об ошибках
Выбранный диапазон
Имя файла D:\ITALIAN POPULAR SONGS\CD\ITALIAN POPULAR SONGS.wav
Пиковый уровень 98.8 %
Качество диапазона 100.0 %
CRC теста C6E3C031
CRC копии C6E3C031
Копирование... OK
Ошибок не произошло
AccurateRip: сводка
Трек 1 нет в базе данных
Трек 2 нет в базе данных
Трек 3 нет в базе данных
Трек 4 нет в базе данных
Трек 5 нет в базе данных
Трек 6 нет в базе данных
Трек 7 нет в базе данных
Трек 8 нет в базе данных
Трек 9 нет в базе данных
Трек 10 нет в базе данных
Трек 11 нет в базе данных
Трек 12 нет в базе данных
Трек 13 нет в базе данных
Трек 14 нет в базе данных
Трек 15 нет в базе данных
Трек 16 нет в базе данных
Трек 17 нет в базе данных
Трек 18 нет в базе данных
Трек 19 нет в базе данных
Трек 20 нет в базе данных
Трек 21 нет в базе данных
Трек 22 нет в базе данных
Трек 23 нет в базе данных
Трек 24 нет в базе данных
Ни одного трека нет в базе AccurateRip
Конец отчёта
Н Е З А Б Ы В А Е М Г О В О Р И Т Ь С П А С И Б О !


Скачать торрент 177.13 МБ


Download
Для скачивания .torrent файлов необходима регистрация
Сайт не распространяет и не хранит электронные версии произведений, а лишь предоставляет доступ к создаваемому пользователями каталогу ссылок на торрент-файлы, которые содержат только списки хеш-сумм

Страница 1 из 1

Ответить на тему

   Похожие торренты   Торрент 




cron