Регистрация ·  Логин: Пароль: Запомнить   · Забыли пароль?




Ответить на тему
Статистика раздачи
Размер: 597.93 МБ | Зарегистрирован: 10 мар 2018, 13:24 | .torrent скачан: 0 раз(а)
Сидеров: [ 7  | 0 байт/сек ]   Личеров: [ 2  | 0 байт/сек ]   DHT: [ 7 / 2 ]
Автор Сообщение

Модератор
Аватара пользователя

Стаж: 6 лет
Сообщения: 7870
Молдова

Сообщение 10 мар 2018, 13:24 

[Цитировать]

Handel – Clori, Tirsi e Fileno & Apollo e Dafne (Nicholas McGegan)

Жанр: Baroque/Cantatas
Год выпуска диска: 2003
Производитель диска: Германия (Harmonia mundi)
Аудио кодек: APE
Тип рипа: image+.cue
Битрейт аудио: lossless
Продолжительность: CD1:76’21; CD2: 52’10
Доп. информация:
Действующие лица и исполнители:
Clori, Tirsi e Fileno – Cantata a tre
Clori - Lorraine Hunt Lieberson (soprano)
Tirsi - Jill Feldman (soprano)
Fileno - Drew Minter (countertenor)
Paul O’Dette - archlute
Philharmonia Baroque Orchestra
Director – Nicholas McGegan
Apollo e Dafne – Cantata for soprano, bass, flute, oboe, bassoon, strings and basso continuo
Judith Nelson – soprano
David Thomas – bass
Philharmonia Baroque Orchestra
Director – Nicholas McGegan
Concerto for Oboe in G Minor
Bruce Haynes - oboe
Philharmonia Baroque Orchestra
Director – Nicholas McGegan
Запись: 1985
Clori, Tirsi e Fileno, HWV 96
Prima parte
1. Ouverture 3'55
2. Aria (Tirsi): Cor fedele 3'06
3. Recitativo (Tirsi): Povero Tirsi 0'54
4. Aria (Tirsi): Quell'erbetta 3'41
5. Recitativo (Tirsi): Se il guardo 0'30
6. Aria (Clori): Va col canto 8'11
7. Recitativo (Clori, Tirsi): Dubbio così 0'48
8. Aria (Fileno): Sai perché 2'42
9. Recitativo (Clori): Vezzoso pastorello 0'35
10. Aria (Clori): Conosco che mi piace 4'00
11. Recitativo (Fileno, Clori): Dunque sperano in vano 0'47
12. Aria (Fileno): Son come quel nocchiero 4'35
13. Recitativo (Clori, Tirsi, Fileno): S'altra pace 0'58
14. Duetto (Clori, Fileno): Scherzano sul tuo volto 4'06
Seconda parte
15. Duetto (Clori, Tirsi): Fermati ! 2'15
16. Recitativo (Tirsi): Creder d'un ange 0'50
17. Aria (Tirsi): Tra le fere 4'25
18. Recitativo (Clori): Tirsi, mio caro Tirsi 0'58
19. Aria (Clori): Barbaro ! 6'44
20. Recitativo (Tirsi, Clori): Pur cederti, mi è forza 1'27
21. Aria (Clori): Amo Tirsi, ed a Fileno 3'14
22. Recitativo (Fileno): Va, fidati e promessa 0'34
23. Aria (Fileno): Povera fedeltà 3'14
24. Recitativo (Tirsi): Non ti stupir 0'41
25. Aria (Tirsi): Un sospiretto 2'53
26. Recitativo (Fileno): Tirsi, amico e compagno 0'23
27. Aria (Fileno): Come la rondinella 5'55
28. Recitativo (Clori, Tirsi, Fileno): Così, felici e avventurosi amanti 0'53
29. Terzetto (Fileno, Tirsi, Clori): Vivere e non amar 3'13
Apollo e Dafne
1. Overture 2’30
2. Recitative: La terra e liberata / Aria: Pende il ben 4’32
3. Recitative: Ch'il superbetto Amore / Aria: Spezza l'arco 3’32
4. Aria: Felicissima quest'alma 6’00
5. Recitative: Che voce! Che belta! 0’51
6. Aria: Ardi, adori 4’17
7. Recitative: Che crudel! / Duo: Una guerra ho dentro il seno 2’25
8. Recitative: Placati al fin, o cara / Aria: Come rosa in su la spina 3’16
9. Recitative: Ah! ch'un Dio / Aria: Come in ciel benigna stella 4’30
10. Recitative: Odi la mia ragion / Duo: Deh! lascia addolcire 3’04
11. Recitative: Sempre t'adorero / Aria: Mie piante correte 3’22
12. Aria: Cara pianta, co' miei pianti 6’06
Concerto for Oboe in G Minor
13. I. Grave 2’29
14. II. Allegro 1’42
15. III. Largo 1’52
16. IV. Allegro 1’46
Код:
Exact Audio Copy V0.99 prebeta 4 from 23. January 2008
Отчёт EAC об извлечении, выполненном 7. июля 2009, 15:47
Nicholas McGegan (L.Hunt, J.Feldman, D.Minter) / Handel - Clori, Tirsi e Fileno, HWV 96
Дисковод: Optiarc DVD RW AD-7173A   Adapter: 1  ID: 1
Режим чтения                 : Достоверность
Использование точного потока : Да
Отключение кэша аудио        : Да
Использование указателей C2  : Нет
Коррекция смещения при чтении                     : 48
Способность читать области Lead-in и Lead-out     : Нет
Заполнение пропущенных сэмплов тишиной            : Да
Удаление блоков с тишиной в начале и конце        : Нет
При вычислениях CRC использовались нулевые сэмплы : Да
Интерфейс                                         : Встроенный Win32-интерфейс для Win NT/2000
Выходной формат : Внутренние WAV-операции
Формат сэмплов  : 44.100 Гц; 16 бит; стерео
TOC извлечённого CD
     Трек |   Старт  | Длительность | Начальный сектор | Конечный сектор
    ---------------------------------------------------------------------
       1  |  0:00.00 |    3:54.28   |           0      |      17577
       2  |  3:54.28 |    3:05.30   |       17578      |      31482
       3  |  6:59.58 |    0:53.62   |       31483      |      35519
       4  |  7:53.45 |    3:40.20   |       35520      |      52039
       5  | 11:33.65 |    0:30.20   |       52040      |      54309
       6  | 12:04.10 |    8:10.23   |       54310      |      91082
       7  | 20:14.33 |    0:48.45   |       91083      |      94727
       8  | 21:03.03 |    2:41.12   |       94728      |     106814
       9  | 23:44.15 |    0:33.73   |      106815      |     109362
      10  | 24:18.13 |    3:59.27   |      109363      |     127314
      11  | 28:17.40 |    0:47.28   |      127315      |     130867
      12  | 29:04.68 |    4:34.42   |      130868      |     151459
      13  | 33:39.35 |    0:56.73   |      151460      |     155732
      14  | 34:36.33 |    4:04.47   |      155733      |     174079
      15  | 38:41.05 |    2:15.30   |      174080      |     184234
      16  | 40:56.35 |    0:49.30   |      184235      |     187939
      17  | 41:45.65 |    4:24.30   |      187940      |     207769
      18  | 46:10.20 |    0:57.58   |      207770      |     212102
      19  | 47:08.03 |    6:42.57   |      212103      |     242309
      20  | 53:50.60 |    1:27.33   |      242310      |     248867
      21  | 55:18.18 |    3:12.50   |      248868      |     263317
      22  | 58:30.68 |    0:34.12   |      263318      |     265879
      23  | 59:05.05 |    3:13.28   |      265880      |     280382
      24  | 62:18.33 |    0:42.07   |      280383      |     283539
      25  | 63:00.40 |    2:52.18   |      283540      |     296457
      26  | 65:52.58 |    0:22.40   |      296458      |     298147
      27  | 66:15.23 |    5:54.55   |      298148      |     324752
      28  | 72:10.03 |    0:53.65   |      324753      |     328792
      29  | 73:03.68 |    3:10.27   |      328793      |     343069
Характеристики диапазона извлечения и сообщения об ошибках
Выбранный диапазон
     Имя файла C:\Documents and Settings\Download\Handel - Apollo e Dafne - McGegan\CD1\Handel - Clori, Tirsi e Fileno, HWV 96.wav
     Пиковый уровень 95.4 %
     Качество диапазона 100.0 %
     CRC копии 40B1E4C6
     Копирование... OK
Ошибок не произошло
Конец отчёта
Код:
Exact Audio Copy V0.99 prebeta 4 from 23. January 2008
Отчёт EAC об извлечении, выполненном 7. июля 2009, 16:26
Nicholas McGegan (Judith Nelson, David Thomas) / Handel - Apollo e Dafne
Дисковод: Optiarc DVD RW AD-7173A   Adapter: 1  ID: 1
Режим чтения                 : Достоверность
Использование точного потока : Да
Отключение кэша аудио        : Да
Использование указателей C2  : Нет
Коррекция смещения при чтении                     : 48
Способность читать области Lead-in и Lead-out     : Нет
Заполнение пропущенных сэмплов тишиной            : Да
Удаление блоков с тишиной в начале и конце        : Нет
При вычислениях CRC использовались нулевые сэмплы : Да
Интерфейс                                         : Встроенный Win32-интерфейс для Win NT/2000
Выходной формат : Внутренние WAV-операции
Формат сэмплов  : 44.100 Гц; 16 бит; стерео
TOC извлечённого CD
     Трек |   Старт  | Длительность | Начальный сектор | Конечный сектор
    ---------------------------------------------------------------------
       1  |  0:00.33 |    2:30.12   |          33      |      11294
       2  |  2:30.45 |    4:33.18   |       11295      |      31787
       3  |  7:03.63 |    3:28.27   |       31788      |      47414
       4  | 10:32.15 |    6:01.48   |       47415      |      74537
       5  | 16:33.63 |    0:51.32   |       74538      |      78394
       6  | 17:25.20 |    3:25.00   |       78395      |      93769
       7  | 20:50.20 |    2:25.63   |       93770      |     104707
       8  | 23:16.08 |    3:16.10   |      104708      |     119417
       9  | 26:32.18 |    4:32.15   |      119418      |     139832
      10  | 31:04.33 |    3:08.20   |      139833      |     153952
      11  | 34:12.53 |    3:22.50   |      153953      |     169152
      12  | 37:35.28 |    6:13.67   |      169153      |     197194
      13  | 43:49.20 |    2:37.48   |      197195      |     209017
      14  | 46:26.68 |    1:46.72   |      209018      |     217039
      15  | 48:13.65 |    1:53.10   |      217040      |     225524
      16  | 50:07.00 |    1:49.33   |      225525      |     233732
Характеристики диапазона извлечения и сообщения об ошибках
Выбранный диапазон
     Имя файла C:\Documents and Settings\Download\Handel - Apollo e Dafne - McGegan\CD2\Handel - Apollo e Dafne.wav
     Пиковый уровень 80.5 %
     Качество диапазона 99.9 %
     CRC копии 546ADA23
     Копирование... OK
Ошибок не произошло
Конец отчёта


Скачать торрент 597.93 МБ


Download
Для скачивания .torrent файлов необходима регистрация
Сайт не распространяет и не хранит электронные версии произведений, а лишь предоставляет доступ к создаваемому пользователями каталогу ссылок на торрент-файлы, которые содержат только списки хеш-сумм

Страница 1 из 1

Ответить на тему

   Похожие торренты   Торрент 




cron