Регистрация ·  Логин: Пароль: Запомнить   · Забыли пароль?




Ответить на тему
Статистика раздачи
Размер: 233.99 МБ | Зарегистрирован: 10 мар 2018, 13:24 | .torrent скачан: 0 раз(а)
Сидеров: [ 1  | 0 байт/сек ]   Личеров: [ 0  | 0 байт/сек ]   DHT: [ 1 / 0 ]
Автор Сообщение

Модератор
Аватара пользователя

Стаж: 6 лет
Сообщения: 7870
Молдова

Сообщение 10 мар 2018, 13:24 

[Цитировать]

Johannes Brahms - The Complete Songs - 1 - Angelika Kirchschlager, Graham Johnson

Жанр: Classical, songs
Страна-производитель диска: UK
Год издания диска: 2010
Издатель (лейбл): Hyperion
Номер по каталогу: CDJ33121
Дата записи: 2008
Аудиокодек: FLAC
Тип рипа: image+.cue
Битрейт аудио: lossless
Продолжительность: 71:28
Источник: собственный рип
Наличие сканов в содержимом раздачи: да
Треклист:
Johannes Brahms (1833-1897)
[1] 5 Gedichte, Op.19 - #2 Scheiden & Meiden
[2] 5 Gedichte, Op.19 - #3 In der Ferne
[3] 4 Gesange, Op.43 - #1 Von ewiger Liebe
[4] 7 Lieder, Op.48 - #1 Der Gang zum Liebchen
[5] 7 Lieder, Op.48 - #2 Der Überläufer
[6] 7 Lieder, Op.48 - #3 Liebesklage des Mädchens
[7] 7 Lieder, Op.48 - #4 Gold überwiegt die Liebe
[8] 7 Lieder, Op.48 - #5 Trost in Tränen
[9] 7 Lieder, Op.48 - #6 Vergangen ist mir Glück & Heil
[10] 7 Lieder, Op.48 - #7 Herbstgefühl
[11] Lieder & Gesange, Op.58 - #4 O komme, holde Sommernacht
[12] Lieder & Gesange, Op.59 - #1 Dämmrung senkte sich von oben
[13] Lieder & Gesange, Op.59 - #2 Auf dem See
[14] Lieder & Gesange, Op.63 - #5 Junge Lieder I, 'Meine Liebe ist Grün'
[15] Lieder & Gesange, Op.63 - #6 Junge Lieder II, 'Wenn um den Holunder'
[16] 9 Gesange, Op.69 - #8 Salome
[17] 4 Gesange, Op.70 - #4 Abendregen
[18] 6 Lieder, Op.86 - #1 Therese
[19] 6 Lieder, Op.86 - #2 Feldeinsamkeit
[20] 6 Lieder, Op.86 - #3 Nachtwandler
[21] 6 Lieder, Op.86 - #4 Über die Heide
[22] 6 Lieder, Op.86 - #5 Versunken
[23] 7 Lieder, Op.95 - #2 Bei dir sind meine Gedanken
[24] 7 Lieder, Op.95 - #3 Beim Abschied
[25] 7 Lieder, Op.95 - #4 Der Jäger
[26] 49 Deutsche Volkslieder, WoO 33 - #06 Da unten im Tale
[27] 49 Deutsche Volkslieder, WoO 33 - #35 Soll sich der Mond nicht heller scheinen
[28] 49 Deutsche Volkslieder, WoO 33 - #12 Feinsliebchen, du sollst mir nicht barfuss gehn
[29] 49 Deutsche Volkslieder, WoO 33 - #33 Och Moder, ich well en Ding han!
Исполнители:
Angelika Kirchschlager mezzo-soprano
Graham Johnson piano
Код:
Exact Audio Copy V1.0 beta 3 from 29. August 2011
EAC extraction logfile from 24. March 2013, 13:04
Angelika Kirchschlager, Graham Johnson / Brahms - The Complete Songs, Vol.1
Used drive  : HL-DT-STDVDRAM GSA-4083N   Adapter: 1  ID: 0
Read mode               : Secure
Utilize accurate stream : Yes
Defeat audio cache      : Yes
Make use of C2 pointers : No
Read offset correction                      : 667
Overread into Lead-In and Lead-Out          : No
Fill up missing offset samples with silence : Yes
Delete leading and trailing silent blocks   : No
Null samples used in CRC calculations       : Yes
Used interface                              : Native Win32 interface for Win NT & 2000
Used output format              : User Defined Encoder
Selected bitrate                : 896 kBit/s
Quality                         : High
Add ID3 tag                     : No
Command line compressor         : C:\Program Files\Exact Audio Copy\Flac\flac.exe
Additional command line options : -V -8 %source%
TOC of the extracted CD
     Track |   Start  |  Length  | Start sector | End sector
    ---------------------------------------------------------
        1  |  0:00.00 |  1:10.08 |         0    |     5257
        2  |  1:10.08 |  2:20.59 |      5258    |    15816
        3  |  3:30.67 |  4:51.53 |     15817    |    37694
        4  |  8:22.45 |  1:22.22 |     37695    |    43866
        5  |  9:44.67 |  1:43.06 |     43867    |    51597
        6  | 11:27.73 |  1:29.71 |     51598    |    58343
        7  | 12:57.69 |  1:25.43 |     58344    |    64761
        8  | 14:23.37 |  3:12.10 |     64762    |    79171
        9  | 17:35.47 |  4:05.56 |     79172    |    97602
       10  | 21:41.28 |  3:28.70 |     97603    |   113272
       11  | 25:10.23 |  1:12.00 |    113273    |   118672
       12  | 26:22.23 |  3:57.69 |    118673    |   136516
       13  | 30:20.17 |  3:15.28 |    136517    |   151169
       14  | 33:35.45 |  1:38.68 |    151170    |   158587
       15  | 35:14.38 |  2:14.14 |    158588    |   168651
       16  | 37:28.52 |  2:02.17 |    168652    |   177818
       17  | 39:30.69 |  5:17.55 |    177819    |   201648
       18  | 44:48.49 |  1:37.00 |    201649    |   208923
       19  | 46:25.49 |  3:01.37 |    208924    |   222535
       20  | 49:27.11 |  3:16.72 |    222536    |   237307
       21  | 52:44.08 |  2:01.70 |    237308    |   246452
       22  | 54:46.03 |  2:02.26 |    246453    |   255628
       23  | 56:48.29 |  1:44.19 |    255629    |   263447
       24  | 58:32.48 |  1:04.68 |    263448    |   268315
       25  | 59:37.41 |  1:17.15 |    268316    |   274105
       26  | 60:54.56 |  1:58.22 |    274106    |   282977
       27  | 62:53.03 |  3:11.34 |    282978    |   297336
       28  | 66:04.37 |  3:04.53 |    297337    |   311189
       29  | 69:09.15 |  2:17.15 |    311190    |   321479
Range status and errors
Selected range
     Filename J:\New Music\Brahms - The Complete Songs - 1\Brahms - The Complete Songs, Vol.1.wav
     Peak level 100.0 %
     Extraction speed 4.3 X
     Range quality 99.9 %
     Test CRC 7D9F89D1
     Copy CRC 7D9F89D1
     Copy OK
No errors occurred
End of status report
==== Log checksum 942990E5EEFD6C3935BD0456A98BDD00703D0BED296B6C3B728CF571CC8AF377 ====


Скачать торрент 233.99 МБ


Download
Для скачивания .torrent файлов необходима регистрация
Сайт не распространяет и не хранит электронные версии произведений, а лишь предоставляет доступ к создаваемому пользователями каталогу ссылок на торрент-файлы, которые содержат только списки хеш-сумм

Страница 1 из 1

Ответить на тему

   Похожие торренты   Торрент 




cron