Регистрация ·  Логин: Пароль: Запомнить   · Забыли пароль?




Ответить на тему
Статистика раздачи
Размер: 299.61 МБ | Зарегистрирован: 10 мар 2018, 13:24 | .torrent скачан: 0 раз(а)
Сидеров: [ 0  | 0 байт/сек ]   Личеров: [ 0  | 0 байт/сек ]   DHT: [ 0 / 0 ]
Автор Сообщение

Модератор
Аватара пользователя

Стаж: 6 лет
Сообщения: 7870
Молдова

Сообщение 10 мар 2018, 13:24 

[Цитировать]

J.S.Bach - Hochzeitskantaten /Свадебные кантаты(Christine Schafer, Musica Antiqua Koln, Reinhard Goebel)

Жанр: classical
Год выпуска диска: 1999
Производитель диска: Germany
Аудио кодек: APE
Тип рипа: image+.cue
Битрейт аудио: lossless
Продолжительность: 62:21
Трэклист:
Иоганн Себастьян Бах
Свадебные кантаты
1. Cantata No. 210, 'O holder Tag, erwünschte Zeit'
('О чудный день, желанный век')
2. Cantata No. 202, 'Weichet nur, betrübte Schatten' (Wedding Cantata)
('Вы отступите, грустные тени',свадебная кантата)
3. Cantata No. 51, 'Jauchzet Gott in allen Landen!'
('Всякое дыхание да хвалит Господа!')
Christine Schäfer (soprano)
Cologne Musica Antiqua
Reinhard Goebel
Cantata No. 210, 'O holder Tag, erwünschte Zeit' 29:56
1. Recit: O holder Tag, erwünschte Zeit 0:58
2. Aria: Spielet, ihr beseelten Lieder 6:14
3. Recit: Doch haltet ein, ihr muntern Saiten 1:01
4. Aria: Ruhet hie, matte Töne 4:59
5. Recit: So glaubt man denn, daß die Musik verführe 2:03
6. Aria: Schweigt, ihr Flöten, schweigt ihr Töne 3:47
7. Recit: Was Luft? was Grab? 1:35
8. Aria: Großer Gönner, dein Vergnügen 3:15
9. Recit: Hochteurer Mann, so fahre ferner fort 1:19
10. Aria: Seid beglückt 4:39
Cantata No. 202, 'Weichet nur, betrübte Schatten' (Wedding Cantata) 17:38
1. Adagio: Weichet nur, betrübte Schatten 4:50
2. Recit: Die Welt wird wieder neu 0:26
3. Aria: Phöbus eilt mit schnellen Pferden 2:55
4. Recit: D'rum sucht auch Amor sein Vergnügen 0:41
5. Aria: Wenn die Frühlingslüfte streichen 2:20
6. Recit: Und dieses ist das Glücke 0:45
7. Aria: Sich üben im Lieben 3:57
8. Recit: So sei das Band der keuschen Liebe 0:24
9. Gavotte: Sehet in Zufriedenheit 1:23
Cantata No. 51, 'Jauchzet Gott in allen Landen!' 14:37
1.Aria: "Jauchzet Gott in allen Landen" 4:00
2.Recitativo: "Wir beten zu dem Tempel an" 2:08
3.Aria: "Höchster, Höchster mache deine Güte ferner alle Morgen neu" 3:11
4.Chorale: "Sei Lob und Preis mit Ehren" 3:11
5.Aria: "Alleluja" 2:13
EAC
Exact Audio Copy V0.99 prebeta 5 from 4. May 2009
EAC extraction logfile from 23. November 2009, 8:57
J.S. Bach / Hochzeitskantaten
Used drive : OPTIARC DVD RW AD-5630A Adapter: 0 ID: 0
Read mode : Secure
Utilize accurate stream : Yes
Defeat audio cache : Yes
Make use of C2 pointers : No
Read offset correction : 48
Overread into Lead-In and Lead-Out : Yes
Fill up missing offset samples with silence : Yes
Delete leading and trailing silent blocks : No
Null samples used in CRC calculations : No
Used interface : Native Win32 interface for Win NT & 2000
Used output format : Internal WAV Routines
Sample format : 44.100 Hz; 16 Bit; Stereo
TOC of the extracted CD
Track | Start | Length | Start sector | End sector
---------------------------------------------------------
1 | 0:00.00 | 0:56.00 | 0 | 4199
2 | 0:56.00 | 6:14.50 | 4200 | 32299
3 | 7:10.50 | 1:01.25 | 32300 | 36899
4 | 8:12.00 | 4:59.00 | 36900 | 59324
5 | 13:11.00 | 2:03.57 | 59325 | 68606
6 | 15:14.57 | 3:47.18 | 68607 | 85649
7 | 19:02.00 | 1:35.25 | 85650 | 92799
8 | 20:37.25 | 3:15.50 | 92800 | 107474
9 | 23:53.00 | 1:19.13 | 107475 | 113412
10 | 25:12.13 | 4:47.62 | 113413 | 134999
11 | 30:00.00 | 4:42.07 | 135000 | 156156
12 | 34:42.07 | 0:26.61 | 156157 | 158167
13 | 35:08.68 | 2:55.07 | 158168 | 171299
14 | 38:04.00 | 0:41.50 | 171300 | 174424
15 | 38:45.50 | 2:20.62 | 174425 | 184986
16 | 41:06.37 | 0:45.13 | 184987 | 188374
17 | 41:51.50 | 3:57.25 | 188375 | 206174
18 | 45:49.00 | 0:24.17 | 206175 | 207991
19 | 46:13.17 | 1:30.58 | 207992 | 214799
20 | 47:44.00 | 3:53.00 | 214800 | 232274
21 | 51:37.00 | 2:08.00 | 232275 | 241874
22 | 53:45.00 | 3:11.00 | 241875 | 256199
23 | 56:56.00 | 3:11.62 | 256200 | 270586
24 | 60:07.62 | 2:13.13 | 270587 | 280574
Range status and errors
Selected range
Filename E:\J.S. Bach - Hochzeitskantaten.wav
Peak level 99.9 %
Range quality 99.9 %
Copy CRC 59FE7F84
Copy OK
No errors occurred
AccurateRip summary
Track 1 accurately ripped (confidence 5) [F05944C7]
Track 2 accurately ripped (confidence 5) [9247BDE2]
Track 3 accurately ripped (confidence 5) [412DEA4F]
Track 4 accurately ripped (confidence 5) [F3B85B21]
Track 5 accurately ripped (confidence 5) [7025BF06]
Track 6 accurately ripped (confidence 5) [26FE0AC3]
Track 7 accurately ripped (confidence 5) [9B5154E9]
Track 8 accurately ripped (confidence 5) [A580DCBD]
Track 9 accurately ripped (confidence 5) [9A4B82F1]
Track 10 accurately ripped (confidence 5) [F0C6BEEF]
Track 11 accurately ripped (confidence 5) [605AE9D2]
Track 12 accurately ripped (confidence 6) [61ADE30D]
Track 13 accurately ripped (confidence 5) [85233812]
Track 14 accurately ripped (confidence 5) [C48350E3]
Track 15 accurately ripped (confidence 4) [D52B0AA6]
Track 16 accurately ripped (confidence 4) [95E4D0BF]
Track 17 accurately ripped (confidence 4) [17E98D8F]
Track 18 accurately ripped (confidence 4) [DDFAC9B0]
Track 19 accurately ripped (confidence 4) [762F3747]
Track 20 accurately ripped (confidence 4) [395398C3]
Track 21 accurately ripped (confidence 5) [6C974A9A]
Track 22 accurately ripped (confidence 5) [D23E4548]
Track 23 accurately ripped (confidence 5) [ADB2C522]
Track 24 accurately ripped (confidence 5) [B6DD3E55]
All tracks accurately ripped
End of status report


Скачать торрент 299.61 МБ


Download
Для скачивания .torrent файлов необходима регистрация
Сайт не распространяет и не хранит электронные версии произведений, а лишь предоставляет доступ к создаваемому пользователями каталогу ссылок на торрент-файлы, которые содержат только списки хеш-сумм

Страница 1 из 1

Ответить на тему

   Похожие торренты   Торрент 




cron