Регистрация ·  Логин: Пароль: Запомнить   · Забыли пароль?




Ответить на тему
Статистика раздачи
Размер: 304.14 МБ | Зарегистрирован: 10 мар 2018, 13:25 | .torrent скачан: 0 раз(а)
Сидеров: [ 0  | 0 байт/сек ]   Личеров: [ 0  | 0 байт/сек ]   DHT: [ 0 / 0 ]
Автор Сообщение

Модератор
Аватара пользователя

Стаж: 6 лет
Сообщения: 7870
Молдова

Сообщение 10 мар 2018, 13:25 

[Цитировать]

Handel - Flaming Rose (Nine German Arias Trio Sonata in F Trio Sonata in B minor)

Жанр: Baroque vocal / chamber
Страна-производитель диска: Made in the EU
Год издания диска: 2007
Издатель (лейбл): Chandos Records Ltd
Номер по каталогу: CHAN 0743
Дата записи: 2006
Аудиокодек: FLAC
Тип рипа: tracks+.cue
Битрейт аудио: lossless
Продолжительность: 69:14
Источник: релизер
сайт-источник/ник/другое: torrontes
Наличие сканов в содержимом раздачи: да
Треклист:
Код:
1 Das zitternde Glänzen der spielenden Wellen, HWV 203 5:19
2 Künft’ger Zeiten eitler Kummer, HWV 202 5:14
3 Meine Seele hört im Sehen, HWV 207 4:51
4 - 8 Trio Sonata in F major, Op. 2 No. 4, HWV 389 11:31
9 Süßer Blumen Ambrafl ocken, HWV 204 9:04
10 Die ihr aus dunkeln Grüften, HWV 208 5:11
11 In den angenehmen Büschen, HWV 209 3:19
12 - 15 Trio Sonata in B minor, Op. 2 No. 1, HWV 386 9:58
16 Flammende Rose, Zierde der Erden, HWV 210 5:29
17 Singe, Seele, Gott zum Preise, HWV 206 4:01
18 Süße Stille, sanfte Quelle, HWV 205 5:13
Код:
[b]1 Das zitternde Glänzen der spielenden Wellen, HWV 203 5:19[/b]
The sparkling and shining of the waves at play
Allegro
[b]2 Künft’ger Zeiten eitler Kummer, HWV 202 5:14[/b]
No vain concern for times to come
Larghetto
[b]3 Meine Seele hört im Sehen, HWV 207 4:51[/b]
My soul hears in seeing
Andante
[b]Trio Sonata in F major, Op. 2 No. 4, HWV 389 11:31[/b]
in F-Dur  en fa majeur
4 I Larghetto 2:12
5 II Allegro 2:51
6 III Adagio 2:06
7 IV Allegro 1:53
8 V Allegro 2:26
[b]9 Süßer Blumen Ambrafl ocken, HWV 204 9:04[/b]
Sweet blooms with your amber petals
Andante
[b]10 Die ihr aus dunkeln Grüften, HWV 208 5:11[/b]
O all who dig vain Mammon / from dark caverns
Larghetto
[b]11 In den angenehmen Büschen, HWV 209 3:19[/b]
In these delightful groves
A tempo giusto
[b]Trio Sonata in B minor, Op. 2 No. 1, HWV 386 9:58[/b]
in h-Moll  en si mineur
12 I Andante 3:13
13 II Allegro ma non troppo 2:11
14 III Largo 2:22
15 IV Allegro 2:08
[b]16 Flammende Rose, Zierde der Erden, HWV 210 5:29[/b]
Flaming rose, earth’s adornment
Allegro
[b]17 Singe, Seele, Gott zum Preise, HWV 206 4:01[/b]
Sing, O my soul, sing in praise of God
Allegro
[b]18 Süße Stille, sanfte Quelle, HWV 205 5:13[/b]
Sweet silence, soft source of calm tranquility
Larghetto
Исполнители:
George Frideric Handel (1685-1759)
Flaming Rose
Featured Works:
Neun deutsche Arien (Nine German Arias), HWV 202-210
Trio Sonata in F, Op. 2, No. 4, HWV 389
Trio Sonata in b minor, Op. 2, No. 1, HWV 386
Julianne Baird (soprano)
Tempesta di Mare Chamber Players
Gwyn Roberts recorder and flute
Richard Stone archlute and theorbo
Emlyn Ngai violin
Rebecca Humphrey cello
Adam Pearl harpsichord
Recording venue Marshall Auditorium of Roberts Hall, Haverford College, Philadelphia; 6 –8 March 2006
Audio CD (August 28, 2007)
Код:
EAC extraction logfile from 4. October 2009, 17:00 for CD
Handel, George Frideric / Flaming Rose - Baird - La Tempesta di Mare
Used drive  : PLEXTOR DVDR   PX-820SA   Adapter: 1  ID: 5
Read mode   : Secure with NO C2, accurate stream, disable cache
Read offset correction : 48
Overread into Lead-In and Lead-Out : No
Used output format : Internal WAV Routines
                     44.100 Hz; 16 Bit; Stereo
Other options      :
    Fill up missing offset samples with silence : Yes
    Delete leading and trailing silent blocks : No
    Installed external ASPI interface
Track  1
     Filename D:\Incoming Music\Handel - Flaming Rose\01 - Das zitternde Glanzen der spielenden Wellen, HWV 203.wav
     Pre-gap length  0:00:02.00
     Peak level 57.7 %
     Track quality 100.0 %
     Test CRC 80034188
     Copy CRC 80034188
     Copy OK
Track  2
     Filename D:\Incoming Music\Handel - Flaming Rose\02 - Kunft'ger Zeiten eitler Kummer, HWV 202.wav
     Pre-gap length  0:00:00.07
     Peak level 61.6 %
     Track quality 100.0 %
     Test CRC 99E12345
     Copy CRC 99E12345
     Copy OK
Track  3
     Filename D:\Incoming Music\Handel - Flaming Rose\03 - Meine Seele hort im Sehen, HWV 207.wav
     Pre-gap length  0:00:00.03
     Peak level 73.9 %
     Track quality 99.9 %
     Test CRC DBEA6B9C
     Copy CRC DBEA6B9C
     Copy OK
Track  4
     Filename D:\Incoming Music\Handel - Flaming Rose\04 - Trio Sonata in F major, Op. 2 No. 4, HWV 389- I. Larghetto.wav
     Pre-gap length  0:00:00.06
     Peak level 26.2 %
     Track quality 100.0 %
     Test CRC 2C7CCD7A
     Copy CRC 2C7CCD7A
     Copy OK
Track  5
     Filename D:\Incoming Music\Handel - Flaming Rose\05 - Trio Sonata in F major, Op. 2 No. 4, HWV 389- II. Allegro.wav
     Pre-gap length  0:00:00.03
     Peak level 22.7 %
     Track quality 100.0 %
     Test CRC 6B96E21D
     Copy CRC 6B96E21D
     Copy OK
Track  6
     Filename D:\Incoming Music\Handel - Flaming Rose\06 - Trio Sonata in F major, Op. 2 No. 4, HWV 389- III. Adagio.wav
     Pre-gap length  0:00:00.08
     Peak level 27.4 %
     Track quality 100.0 %
     Test CRC 8EE3C3DC
     Copy CRC 8EE3C3DC
     Copy OK
Track  7
     Filename D:\Incoming Music\Handel - Flaming Rose\07 - Trio Sonata in F major, Op. 2 No. 4, HWV 389- IV. Allegro.wav
     Peak level 28.8 %
     Track quality 99.9 %
     Test CRC 503F1A06
     Copy CRC 503F1A06
     Copy OK
Track  8
     Filename D:\Incoming Music\Handel - Flaming Rose\08 - Trio Sonata in F major, Op. 2 No. 4, HWV 389- V. Allegro.wav
     Pre-gap length  0:00:00.14
     Peak level 32.7 %
     Track quality 100.0 %
     Test CRC 7767CBD3
     Copy CRC 7767CBD3
     Copy OK
Track  9
     Filename D:\Incoming Music\Handel - Flaming Rose\09 - Susser Blumen Ambraflocken, HWV 204.wav
     Pre-gap length  0:00:00.21
     Peak level 51.6 %
     Track quality 100.0 %
     Test CRC 59D9C261
     Copy CRC 59D9C261
     Copy OK
Track 10
     Filename D:\Incoming Music\Handel - Flaming Rose\10 - Die ihr aus dunkeln Gruften, HWV 208.wav
     Pre-gap length  0:00:00.05
     Peak level 97.2 %
     Track quality 100.0 %
     Test CRC 6C9874BF
     Copy CRC 6C9874BF
     Copy OK
Track 11
     Filename D:\Incoming Music\Handel - Flaming Rose\11 - In den angenehmen Buschen, HWV 209.wav
     Pre-gap length  0:00:00.02
     Peak level 85.9 %
     Track quality 100.0 %
     Test CRC D4CFAE6F
     Copy CRC D4CFAE6F
     Copy OK
Track 12
     Filename D:\Incoming Music\Handel - Flaming Rose\12 - Trio Sonata in B minor, Op. 2 No. 1, HWV 386- I. Andante.wav
     Pre-gap length  0:00:00.22
     Peak level 33.0 %
     Track quality 100.0 %
     Test CRC 341D22F7
     Copy CRC 341D22F7
     Copy OK
Track 13
     Filename D:\Incoming Music\Handel - Flaming Rose\13 - Trio Sonata in B minor, Op. 2 No. 1, HWV 386- II. Allegro ma non troppo.wav
     Pre-gap length  0:00:00.14
     Peak level 41.0 %
     Track quality 100.0 %
     Test CRC 6AA74756
     Copy CRC 6AA74756
     Copy OK
Track 14
     Filename D:\Incoming Music\Handel - Flaming Rose\14 - Trio Sonata in B minor, Op. 2 No. 1, HWV 386- III. Largo.wav
     Pre-gap length  0:00:00.17
     Peak level 22.5 %
     Track quality 100.0 %
     Test CRC A5331966
     Copy CRC A5331966
     Copy OK
Track 15
     Filename D:\Incoming Music\Handel - Flaming Rose\15 - Trio Sonata in B minor, Op. 2 No. 1, HWV 386- IV. Allegro.wav
     Pre-gap length  0:00:00.24
     Peak level 34.7 %
     Track quality 100.0 %
     Test CRC FC89CB1F
     Copy CRC FC89CB1F
     Copy OK
Track 16
     Filename D:\Incoming Music\Handel - Flaming Rose\16 - Flammende Rose, Zierde der Erden, HWV 210.wav
     Pre-gap length  0:00:00.34
     Peak level 81.8 %
     Track quality 100.0 %
     Test CRC B2B4B72F
     Copy CRC B2B4B72F
     Copy OK
Track 17
     Filename D:\Incoming Music\Handel - Flaming Rose\17 - Singe, Seele, Gott zum Preise, HWV 205.wav
     Pre-gap length  0:00:00.34
     Peak level 96.4 %
     Track quality 100.0 %
     Test CRC 8822A894
     Copy CRC 8822A894
     Copy OK
Track 18
     Filename D:\Incoming Music\Handel - Flaming Rose\18 - Susse Stille, sanfte Quelle, HWV 205.wav
     Pre-gap length  0:00:00.34
     Peak level 80.9 %
     Track quality 100.0 %
     Test CRC F40A318F
     Copy CRC F40A318F
     Copy OK
No errors occured
End of status report
Код:
PERFORMER "Handel, George Frideric"
TITLE "Flaming Rose - Baird - La Tempesta di Mare"
FILE "01 - Das zitternde Glanzen der spielenden Wellen, HWV 203.wav" WAVE
  TRACK 01 AUDIO
    TITLE "Das zitternde Glanzen der spielenden Wellen, HWV 203"
    PERFORMER "Handel, George Frideric"
    INDEX 01 00:00:00
  TRACK 02 AUDIO
    TITLE "Kunft'ger Zeiten eitler Kummer, HWV 202"
    PERFORMER "Handel, George Frideric"
    INDEX 00 05:17:68
FILE "02 - Kunft'ger Zeiten eitler Kummer, HWV 202.wav" WAVE
    INDEX 01 00:00:00
  TRACK 03 AUDIO
    TITLE "Meine Seele hort im Sehen, HWV 207"
    PERFORMER "Handel, George Frideric"
    INDEX 00 05:14:24
FILE "03 - Meine Seele hort im Sehen, HWV 207.wav" WAVE
    INDEX 01 00:00:00
  TRACK 04 AUDIO
    TITLE "Trio Sonata in F major, Op. 2 No. 4, HWV 389: I. Larghetto"
    PERFORMER "Handel, George Frideric"
    INDEX 00 04:51:59
FILE "04 - Trio Sonata in F major, Op. 2 No. 4, HWV 389- I. Larghetto.wav" WAVE
    INDEX 01 00:00:00
  TRACK 05 AUDIO
    TITLE "Trio Sonata in F major, Op. 2 No. 4, HWV 389: II. Allegro"
    PERFORMER "Handel, George Frideric"
    INDEX 00 02:12:23
FILE "05 - Trio Sonata in F major, Op. 2 No. 4, HWV 389- II. Allegro.wav" WAVE
    INDEX 01 00:00:00
  TRACK 06 AUDIO
    TITLE "Trio Sonata in F major, Op. 2 No. 4, HWV 389: III. Adagio"
    PERFORMER "Handel, George Frideric"
    INDEX 00 02:51:63
FILE "06 - Trio Sonata in F major, Op. 2 No. 4, HWV 389- III. Adagio.wav" WAVE
    INDEX 01 00:00:00
FILE "07 - Trio Sonata in F major, Op. 2 No. 4, HWV 389- IV. Allegro.wav" WAVE
  TRACK 07 AUDIO
    TITLE "Trio Sonata in F major, Op. 2 No. 4, HWV 389: IV. Allegro"
    PERFORMER "Handel, George Frideric"
    INDEX 01 00:00:00
  TRACK 08 AUDIO
    TITLE "Trio Sonata in F major, Op. 2 No. 4, HWV 389: V. Allegro"
    PERFORMER "Handel, George Frideric"
    INDEX 00 01:53:51
FILE "08 - Trio Sonata in F major, Op. 2 No. 4, HWV 389- V. Allegro.wav" WAVE
    INDEX 01 00:00:00
  TRACK 09 AUDIO
    TITLE "Susser Blumen Ambraflocken, HWV 204"
    PERFORMER "Handel, George Frideric"
    INDEX 00 02:26:22
FILE "09 - Susser Blumen Ambraflocken, HWV 204.wav" WAVE
    INDEX 01 00:00:00
  TRACK 10 AUDIO
    TITLE "Die ihr aus dunkeln Gruften, HWV 208"
    PERFORMER "Handel, George Frideric"
    INDEX 00 09:04:32
FILE "10 - Die ihr aus dunkeln Gruften, HWV 208.wav" WAVE
    INDEX 01 00:00:00
  TRACK 11 AUDIO
    TITLE "In den angenehmen Buschen, HWV 209"
    PERFORMER "Handel, George Frideric"
    INDEX 00 05:11:72
FILE "11 - In den angenehmen Buschen, HWV 209.wav" WAVE
    INDEX 01 00:00:00
  TRACK 12 AUDIO
    TITLE "Trio Sonata in B minor, Op. 2 No. 1, HWV 386: I. Andante"
    PERFORMER "Handel, George Frideric"
    INDEX 00 03:19:36
FILE "12 - Trio Sonata in B minor, Op. 2 No. 1, HWV 386- I. Andante.wav" WAVE
    INDEX 01 00:00:00
  TRACK 13 AUDIO
    TITLE "Trio Sonata in B minor, Op. 2 No. 1, HWV 386: II. Allegro ma non troppo"
    PERFORMER "Handel, George Frideric"
    INDEX 00 03:13:70
FILE "13 - Trio Sonata in B minor, Op. 2 No. 1, HWV 386- II. Allegro ma non troppo.wav" WAVE
    INDEX 01 00:00:00
  TRACK 14 AUDIO
    TITLE "Trio Sonata in B minor, Op. 2 No. 1, HWV 386: III. Largo"
    PERFORMER "Handel, George Frideric"
    INDEX 00 02:12:11
FILE "14 - Trio Sonata in B minor, Op. 2 No. 1, HWV 386- III. Largo.wav" WAVE
    INDEX 01 00:00:00
  TRACK 15 AUDIO
    TITLE "Trio Sonata in B minor, Op. 2 No. 1, HWV 386: IV. Allegro"
    PERFORMER "Handel, George Frideric"
    INDEX 00 02:22:16
FILE "15 - Trio Sonata in B minor, Op. 2 No. 1, HWV 386- IV. Allegro.wav" WAVE
    INDEX 01 00:00:00
  TRACK 16 AUDIO
    TITLE "Flammende Rose, Zierde der Erden, HWV 210"
    PERFORMER "Handel, George Frideric"
    INDEX 00 02:08:32
FILE "16 - Flammende Rose, Zierde der Erden, HWV 210.wav" WAVE
    INDEX 01 00:00:00
  TRACK 17 AUDIO
    TITLE "Singe, Seele, Gott zum Preise, HWV 205"
    PERFORMER "Handel, George Frideric"
    INDEX 00 05:29:51
FILE "17 - Singe, Seele, Gott zum Preise, HWV 205.wav" WAVE
    INDEX 01 00:00:00
  TRACK 18 AUDIO
    TITLE "Susse Stille, sanfte Quelle, HWV 205"
    PERFORMER "Handel, George Frideric"
    INDEX 00 04:01:40
FILE "18 - Susse Stille, sanfte Quelle, HWV 205.wav" WAVE
    INDEX 01 00:00:00


Скачать торрент 304.14 МБ


Download
Для скачивания .torrent файлов необходима регистрация
Сайт не распространяет и не хранит электронные версии произведений, а лишь предоставляет доступ к создаваемому пользователями каталогу ссылок на торрент-файлы, которые содержат только списки хеш-сумм

Страница 1 из 1

Ответить на тему

   Похожие торренты   Торрент 




cron