Регистрация ·  Логин: Пароль: Запомнить   · Забыли пароль?




Ответить на тему
Статистика раздачи
Размер: 273.71 МБ | Зарегистрирован: 10 мар 2018, 13:25 | .torrent скачан: 0 раз(а)
Сидеров: [ 5  | 0 байт/сек ]   Личеров: [ 1  | 0 байт/сек ]   DHT: [ 5 / 1 ]
Автор Сообщение

Модератор
Аватара пользователя

Стаж: 6 лет
Сообщения: 7870
Молдова

Сообщение 10 мар 2018, 13:25 

[Цитировать]

Rossini, Haydn, Mozart - Opera Scenes and Arias

Жанр: Classical opera vocal
Страна-производитель диска: Made in West Germany
Год издания диска: LP 9500 71 - 1979 / CD 420 084-2 - 1987?
Издатель (лейбл): Philips
Номер по каталогу: 420 084-2
Дата записи: 1975, 1977
Аудиокодек: FLAC
Тип рипа: image+.cue
Битрейт аудио: lossless
Продолжительность: 69'10
Источник: релизер
сайт-источник/ник/другое: Davide meeting music, подарок
Наличие сканов в содержимом раздачи: да
Треклист:
Joseph Haydn
1 La Fedeltà Premiata: Per Te M'Accese Amore 1:44
Baritone Vocals – Maurizio Mezzieri
2 La Fedeltà Premiata: Vanne...Fuggi...Traditore! 3:01
3 La Fedelta Premiata: Barbaro Conte...Dell'Amor Mio Fedele 7:18
4 Il Mondo Della Luna: Una Donna Come Me 4:06
Wolfgang Amadeus Mozart
5 Le Nozze Di Figaro: Non So Più 3:06
6 Le Nozze Di Figaro: Voi Che Sapete 3:12
7 La Clemenza Di Tito: Ecco Il Punto - Non Più De Fiori 9:29
Clarinet – Bas De Jong
8 Don Giovanni: Vedrai Carino 3:59
9 La Clemenza Di Tito: Parto, Parto - Guardami, E Tutto Obblio 6:27
Basset Horn – George Pieterson
Gioacchino Rossini
10 Il Barbiere Di Siviglia: Una Voce Poco Fa - Io Sono Docile 5:46
11 Otello: Assisa A Piè D'Un Salce - Deh! Calma, O Ciel, Nel Sonno 13:37
Harp – Teresia Rieu
12 La Cenerentola: Nacquì All'Affanno - Non Più Mesta 6:30
Код:
Gioacchino Rossini, Franz-Joseph Haydn,
Wolfgang Amadeus Mozart
[b]Opera Scenes and Arias[/b]
Frederica von Stade, Mezzo-Soprano
Baritone Vocals – Maurizio Mezzieri
Clarinet – Bas De Jong
Basset Horn – George Pieterson
Harp – Teresia Rieu
Composed By – Gioacchino Rossini (tracks: 10 to 12)
Joseph Haydn (tracks: 1 to 4)
Wolfgang Amadeus Mozart (tracks: 5 to 9)
Orchestra – Orchestre De Chambre De Lausanne (tracks: 1 to 4)
Rotterdam Philharmonic Orchestra* (tracks: 5 to 12)
Conductor – Antal Dorati (tracks: 1 to 4), Edo De Waart (tracks: 5 to 12)
Recorded: Epalinges, Switzerland, 6/1975 (La fedeltà premiata); 9/1977 (Il mondo della luna); De Doelen, Rotterdam, 9/1975 (Mozart, Rossini)
Код:
Exact Audio Copy V1.3 from 2. September 2016
EAC extraction logfile from 8. December 2017, 12:17
Frederica von Stade / Haydn, Mozart, Rossini Opera Arias
Used drive  : TSSTcorpCDDVDW SH-S203N   Adapter: 1  ID: 1
Read mode               : Secure
Utilize accurate stream : Yes
Defeat audio cache      : Yes
Make use of C2 pointers : No
Read offset correction                      : 6
Overread into Lead-In and Lead-Out          : No
Fill up missing offset samples with silence : Yes
Delete leading and trailing silent blocks   : No
Null samples used in CRC calculations       : Yes
Used interface                              : Native Win32 interface for Win NT & 2000
Used output format              : User Defined Encoder
Selected bitrate                : 768 kBit/s
Quality                         : High
Add ID3 tag                     : No
Command line compressor         : C:\Program Files (x86)\Exact Audio Copy\FLAC\FLAC.EXE
Additional command line options : -6 -V -T "ARTIST=%artist%" -T "TITLE=%title%" -T "ALBUM=%albumtitle%" -T "DATE=%year%" -T "TRACKNUMBER=%tracknr%" -T "GENRE=%genre%" -T "COMMENT=%comment%" -T "BAND=%albuminterpret%" -T "ALBUMARTIST=%albuminterpret%" -T "COMPOSER=%composer%" %haslyrics%--tag-from-file=LYRICS="%lyricsfile%"%haslyrics% -T "DISCNUMBER=%cdnumber%" -T "TOTALDISCS=%totalcds%" -T "TOTALTRACKS=%numtracks%" %hascover%--picture="%coverfile%"%hascover% %source% -o %dest%
TOC of the extracted CD
     Track |   Start  |  Length  | Start sector | End sector
    ---------------------------------------------------------
        1  |  0:00.33 |  1:46.00 |        33    |     7982
        2  |  1:46.33 |  3:03.00 |      7983    |    21707
        3  |  4:49.33 |  7:26.00 |     21708    |    55157
        4  | 12:15.33 |  4:15.00 |     55158    |    74282
        5  | 16:30.33 |  3:09.00 |     74283    |    88457
        6  | 19:39.33 |  3:16.00 |     88458    |   103157
        7  | 22:55.33 |  9:35.00 |    103158    |   146282
        8  | 32:30.33 |  4:04.00 |    146283    |   164582
        9  | 36:34.33 |  6:35.00 |    164583    |   194207
       10  | 43:09.33 |  5:50.00 |    194208    |   220457
       11  | 48:59.33 | 13:41.00 |    220458    |   282032
       12  | 62:40.33 |  6:30.00 |    282033    |   311282
Range status and errors
Selected range
     Filename F:\BLOGGER\AA CD RIPPATI\Haydn, Mozart, Rossini Opera Arias von Stade 1975\Frederica von Stade - Haydn, Mozart, Rossini Opera Arias.wav
     Peak level 97.8 %
     Extraction speed 7.7 X
     Range quality 100.0 %
     Copy CRC 719AD574
     Copy OK
No errors occurred
AccurateRip summary
Track  1  accurately ripped (confidence 11)  [3BC892FF]  (AR v2)
Track  2  accurately ripped (confidence 12)  [A4BADF63]  (AR v2)
Track  3  accurately ripped (confidence 12)  [A5CBFD8F]  (AR v2)
Track  4  accurately ripped (confidence 12)  [EEE30F73]  (AR v2)
Track  5  accurately ripped (confidence 12)  [8AE8D174]  (AR v2)
Track  6  accurately ripped (confidence 12)  [737AC7E0]  (AR v2)
Track  7  accurately ripped (confidence 12)  [1E51D0D6]  (AR v2)
Track  8  accurately ripped (confidence 12)  [210DED3B]  (AR v2)
Track  9  accurately ripped (confidence 12)  [0D1A56BE]  (AR v2)
Track 10  accurately ripped (confidence 12)  [C29D42E8]  (AR v2)
Track 11  accurately ripped (confidence 12)  [55B0405D]  (AR v2)
Track 12  accurately ripped (confidence 12)  [589A76A0]  (AR v2)
All tracks accurately ripped
End of status report
---- CUETools DB Plugin V2.1.6
[CTDB TOCID: 8XFJx4ez1xVVf2b.PoxSRfXKm3Y-] found
Submit result: 8XFJx4ez1xVVf2b.PoxSRfXKm3Y- has been confirmed
Track | CTDB Status
  1   | (8/9) Accurately ripped
  2   | (8/9) Accurately ripped
  3   | (9/9) Accurately ripped
  4   | (8/9) Accurately ripped
  5   | (9/9) Accurately ripped
  6   | (9/9) Accurately ripped
  7   | (9/9) Accurately ripped
  8   | (9/9) Accurately ripped
  9   | (9/9) Accurately ripped
 10   | (9/9) Accurately ripped
 11   | (9/9) Accurately ripped
 12   | (9/9) Accurately ripped
Код:
REM GENRE Opera
REM DATE 1975
REM DISCID AF10360C
REM COMMENT "ExactAudioCopy v1.3"
PERFORMER "Frederica von Stade"
TITLE "Haydn, Mozart, Rossini Opera Arias"
REM COMPOSER "Gioacchino Rossini, Franz-Joseph Haydn, Wolfgang Amadeus Mozart"
FILE "Frederica von Stade - Haydn, Mozart, Rossini Opera Arias.flac" WAVE
  TRACK 01 AUDIO
    TITLE "Haydn - La fedeltà premiata - Per te m'accese amore"
    PERFORMER "Frederica von Stade, Maurizio Mezzieri, Antal Dorati, Orchestre de Chambre de..."
    REM COMPOSER "Franz Joseph Haydn"
    INDEX 00 00:00:00
    INDEX 01 00:00:33
  TRACK 02 AUDIO
    TITLE "Haydn - La fedeltà premiata - Vanne... fuggi... traditore!"
    PERFORMER "Frederica von Stade, Antal Dorati, Orchestre de Chambre de Lausanne"
    REM COMPOSER "Franz Joseph Haydn"
    INDEX 00 01:44:33
    INDEX 01 01:46:33
  TRACK 03 AUDIO
    TITLE "Haydn - La fedeltà premiata - Barbaro conte... Dell'amor mio fedele"
    PERFORMER "Frederica von Stade, Antal Dorati, Orchestre de Chambre de Lausanne"
    REM COMPOSER "Franz Joseph Haydn"
    INDEX 00 04:47:33
    INDEX 01 04:49:33
    INDEX 02 06:27:33
  TRACK 04 AUDIO
    TITLE "Haydn - Il mondo della luna - Una donna come me"
    PERFORMER "Frederica von Stade, Antal Dorati, Orchestre de Chambre de Lausanne"
    REM COMPOSER "Franz Joseph Haydn"
    INDEX 00 12:07:34
    INDEX 01 12:15:33
  TRACK 05 AUDIO
    TITLE "Mozart - Le nozze di Figaro - Non so più"
    PERFORMER "Frederica von Stade, Edo de Waart, Rotterdam Philharmonic Orchestra"
    REM COMPOSER "Wolfgang Amadeus Mozart"
    INDEX 00 16:21:33
    INDEX 01 16:30:33
  TRACK 06 AUDIO
    TITLE "Mozart - Le nozze di Figaro - Voi che sapete"
    PERFORMER "Frederica von Stade, Edo de Waart, Rotterdam Philharmonic Orchestra"
    REM COMPOSER "Wolfgang Amadeus Mozart"
    INDEX 00 19:36:33
    INDEX 01 19:39:33
  TRACK 07 AUDIO
    TITLE "Mozart - La clemenza di Tito - Ecco il punto... Non più di fiori"
    PERFORMER "Frederica von Stade, Edo de Waart, Rotterdam Philharmonic Orchestra"
    REM COMPOSER "Wolfgang Amadeus Mozart"
    INDEX 00 22:51:33
    INDEX 01 22:55:33
    INDEX 02 25:24:33
  TRACK 08 AUDIO
    TITLE "Mozart - Don Giovanni - Vedrai carino"
    PERFORMER "Frederica von Stade, Edo de Waart, Rotterdam Philharmonic Orchestra"
    REM COMPOSER "Wolfgang Amadeus Mozart"
    INDEX 00 32:24:33
    INDEX 01 32:30:33
  TRACK 09 AUDIO
    TITLE "Mozart - La clemenza di Tito - Parto, parto... Guardami, e tutto obblio"
    PERFORMER "Frederica von Stade, Edo de Waart, Rotterdam Philharmonic Orchestra"
    REM COMPOSER "Gioacchino Rossini"
    INDEX 00 36:29:33
    INDEX 01 36:34:33
    INDEX 02 39:49:50
  TRACK 10 AUDIO
    TITLE "Rossini - Il barbiere di Siviglia - Una voce poco fa"
    PERFORMER "Frederica von Stade, Edo de Waart, Rotterdam Philharmonic Orchestra"
    REM COMPOSER "Gioacchino Rossini"
    INDEX 00 43:01:34
    INDEX 01 43:09:33
    INDEX 02 45:36:21
  TRACK 11 AUDIO
    TITLE "Rossini - Otello - Assisa a piè d'un salice... Deh! calma, o Ciel, nel sonno"
    PERFORMER "Frederica von Stade, Edo de Waart, Rotterdam Philharmonic Orchestra"
    REM COMPOSER "Gioacchino Rossini"
    INDEX 00 48:55:34
    INDEX 01 48:59:33
    INDEX 02 59:45:33
  TRACK 12 AUDIO
    TITLE "Rossini - La Cenerentola - Nacquì all'affanno... Non più mesta"
    PERFORMER "Frederica von Stade, Edo de Waart, Rotterdam Philharmonic Orchestra"
    REM COMPOSER "Gioacchino Rossini"
    INDEX 00 62:36:33
    INDEX 01 62:40:33
    INDEX 02 66:12:33


Скачать торрент 273.71 МБ


Download
Для скачивания .torrent файлов необходима регистрация
Сайт не распространяет и не хранит электронные версии произведений, а лишь предоставляет доступ к создаваемому пользователями каталогу ссылок на торрент-файлы, которые содержат только списки хеш-сумм

Страница 1 из 1

Ответить на тему

   Похожие торренты   Торрент 




cron